Loading...
Error

Скачать Война и мир / War and Peace (сезон 01) (Том Харпер) [2016, драма, мелодрама, военный, история, экранизация, WEB-DL] [1080p] [MVO (NewStudio)]+[Eng] торрент без регистрации

 
Статистика раздачи
Размер:  17,48 GB   |    Скачан:  76 раз
Сидов:  1  [  0 KB/s  ]  
 
Автор Сообщение

МихаНЕзатор

[] 

Информация о фильме
Год выпуска: 2015
Страна: США, Великобритания
Жанр: драма, мелодрама, военный, история
Продолжительность: 00:59:00
Перевод: Профессиональный (многоголосый, закадровый) (NewStudio)
Режиссер: Том Харпер / Tom Harper

В ролях: Анейрин Барнард (Boris Drubetskoy), Пол Дано (Pierre Bezukhov), Лили Джеймс (Natasha Rostova), Джеймс Нортон (Prince Andrei Bolkonsky), Оливия Росс (Mademoiselle Bourienne), Рори Кинэн (Bilibin), Гийом Форе (Napoleon's Adjutant), Дэвид Куилтер (Tikhon), Кит Коннор (Petya Rostov (aged 9-10)), Отто Фаррант (Petya Rostov), Хлоя Пирри (Julie Karegina), Теренс Бисли (General Bennigsen)

Описание: Действие сериала развивается в России XIX века, охватывая период с 1805 по 1812 годы. В основу сюжета положен роман Льва Толстого "Война и мир", основное внимание сфокусировано на судьбах Пьера Безухова, Андрея Болконского и Наташи Ростовой.



Файл
Качество: WEB-DL 1080p
Контейнер: MKV
Видео: H.264, 1912x1068 / 1912x1072, 25.000 fps, 5 059 kbps, 0.099 bit/pixel
Аудио №1: AC3, 48 kHz, 6 ch, 384 kbps [NewStudio]
Аудио №2: AC3, 48 kHz, 6 ch, 384 kbps [Original]
Субтитры: нет

АНОНСЫ ПОПУЛЯРНЫХ РАЗДАЧ


Торрент обновлён, добавлена 6-я серия!
General
Unique ID : 239348827938878003865156648462247105897 (0xB410E85124AA54E59F3970B97D9D9569)
Complete name : H:War.and.Peace.2016.s01.WEBDL.1080p.NewStudioWar.and.Peace.2016.s01e01.WEBDL.1080p.NewStudio.TV.mkv
Format : Matroska
Format version : Version 4 / Version 2
File size : 2.47 GiB
Duration : 59mn 26s
Overall bit rate : 5 945 Kbps
Encoded date : UTC 2016-01-07 21:12:30
Writing application : mkvmerge v8.2.0 ('World of Adventure') 32bit
Writing library : libebml v1.3.1 + libmatroska v1.4.2
DURATION : 00:59:26.016000000
NUMBER_OF_FRAMES : 111438
NUMBER_OF_BYTES : 171168768
_STATISTICS_WRITING_APP : mkvmerge v8.2.0 ('World of Adventure') 32bit
_STATISTICS_WRITING_DATE_UT : 2016-01-07 21:12:30
_STATISTICS_TAGS : BPS DURATION NUMBER_OF_FRAMES NUMBER_OF_BYTES

Video
ID : 1
Format : AVC
Format/Info : Advanced Video Codec
Format profile : High@L4
Format settings, CABAC : Yes
Format settings, ReFrames : 4 frames
Codec ID : V_MPEG4/ISO/AVC
Duration : 59mn 26s
Bit rate : 5 059 Kbps
Width : 1 912 pixels
Height : 1 068 pixels
Display aspect ratio : 16:9
Frame rate mode : Constant
Frame rate : 25.000 fps
Color space : YUV
Chroma subsampling : 4:2:0
Bit depth : 8 bits
Scan type : Progressive
Bits/(Pixel*Frame) : 0.099
Stream size : 2.10 GiB (85%)
Language : English
Default : Yes
Forced : No
Color range : Limited
Color primaries : BT.709
Transfer characteristics : BT.709
Matrix coefficients : BT.709

Audio #1
ID : 2
Format : AC-3
Format/Info : Audio Coding 3
Mode extension : CM (complete main)
Format settings, Endianness : Big
Codec ID : A_AC3
Duration : 59mn 26s
Bit rate mode : Constant
Bit rate : 384 Kbps
Channel(s) : 6 channels
Channel positions : Front: L C R, Side: L R, LFE
Sampling rate : 48.0 KHz
Compression mode : Lossy
Stream size : 163 MiB (6%)
Title : NewStudio.TV
Language : Russian
Default : Yes
Forced : No

Audio #2
ID : 3
Format : AC-3
Format/Info : Audio Coding 3
Mode extension : CM (complete main)
Format settings, Endianness : Big
Codec ID : A_AC3
Duration : 59mn 26s
Bit rate mode : Constant
Bit rate : 384 Kbps
Channel(s) : 6 channels
Channel positions : Front: L C R, Side: L R, LFE
Sampling rate : 48.0 KHz
Compression mode : Lossy
Stream size : 163 MiB (6%)
Language : English
Default : No
Forced : No



Скачать Война.и.мир.War.and.Peace.(сезон.01).(Том.Харпер).[2016.драма.мелодрама.военный.история.экранизация.WEB-DL].[1080p].[MVO.(NewStudio)]+[Eng].torrent без регистрации
Золото ЗОЛОТАЯ РАЗДАЧА! СКАЧАННОЕ НЕ ЗАСЧИТЫВАЕТСЯ! Золото
Дата: Зарегистрирован   [ Тип: внутренний ] Как тут cкачать?
MAGNET ссылка
MAGNET ссылка


Скачать .torrent

89 KB

Статус: проверено DHT
Скачан: торрент - 76 раз, раздача полностью - 16 раз
Размер: 17,48 GB
Оценка:  - (Голосов: 0)
Поблагодарили: 1
Поделиться ссылкой на эту раздачу с друзьями:
В контактеFacebookОдноклассникиTwitterLivejournalМой МирLiveinternet
 

 
Показать сообщения:    


Вы не можете начинать темы
Вы не можете отвечать на сообщения
Вы не можете редактировать свои сообщения
Вы не можете удалять свои сообщения
Вы не можете голосовать в опросах
Вы не можете прикреплять файлы к сообщениям
Вы можете скачивать файлы