Loading...
Error

Скачать Война и мир / War and Peace (сезон 01) (Том Харпер) [2016, драма, мелодрама, военный, история, экранизация, WEB-DLRip-AVC] [MVO (NewStudio)] торрент без регистрации

 
Статистика раздачи
Размер:  4,89 GB   |    Скачан:  97 раз
Сидов:  1  [  0 KB/s  ]  
 
Автор Сообщение

МихаНЕзатор

[] 

Информация о фильме
Год выпуска: 2015
Страна: США, Великобритания
Жанр: драма, мелодрама, военный, история
Продолжительность: 00:59:00
Перевод: Профессиональный (многоголосый, закадровый) (NewStudio)

Режиссер: Том Харпер / Tom Harper

В ролях: Анейрин Барнард (Boris Drubetskoy), Пол Дано (Pierre Bezukhov), Лили Джеймс (Natasha Rostova), Джеймс Нортон (Prince Andrei Bolkonsky), Оливия Росс (Mademoiselle Bourienne), Рори Кинэн (Bilibin), Гийом Форе (Napoleon's Adjutant), Дэвид Куилтер (Tikhon), Кит Коннор (Petya Rostov (aged 9-10)), Отто Фаррант (Petya Rostov), Хлоя Пирри (Julie Karegina), Теренс Бисли (General Bennigsen)

Описание: Действие сериала развивается в России XIX века, охватывая период с 1805 по 1812 годы. В основу сюжета положен роман Льва Толстого "Война и мир", основное внимание сфокусировано на судьбах Пьера Безухова, Андрея Болконского и Наташи Ростовой.



Файл
Качество: WEB-DLRip-AVC
Контейнер: MKV
Видео: High@L4.1, 1024x572 / 1020x572, 25.000 fps, ~1500 kbps
Аудио №1: AC3, 48 kHz, 6 ch, 384 kbps
Субтитры: нет

АНОНСЫ ПОПУЛЯРНЫХ РАЗДАЧ


Торрент обновлён, добавлена 6-я серия!
General
Unique ID : 86298200420259438299773268099053684338 (0x40EC6DC80A1E2709F360E7F922C88672)
Complete name : F:СериалыWar.and.Peace.2016.s01.WEB-DLRIP_AVC.NewStudioWar.and.Peace.2016.s01e01.WEBDLRIP_AVC.[-=DoMiNo=-].mkv
Format : Matroska
Format version : Version 4 / Version 2
File size : 889 MiB
Duration : 59mn 26s
Overall bit rate : 2 090 Kbps
Writing application : XviD4PSP 7.0.206
Writing library : Lavf56.40.101 / Lavf56.40.101
Cover : Yes
Attachments : cover.png
ENCODING_INFO : MATROSKA,WEBM > MKV / H264 > X264 CRF 18.0 Custom / AC3 > COPY

Video
ID : 1
Format : AVC
Format/Info : Advanced Video Codec
Format profile : High@L4.1
Format settings, CABAC : Yes
Format settings, ReFrames : 10 frames
Codec ID : V_MPEG4/ISO/AVC
Duration : 59mn 26s
Bit rate : 1 664 Kbps
Width : 1 024 pixels
Height : 572 pixels
Display aspect ratio : 16:9
Frame rate mode : Constant
Frame rate : 25.000 fps
Color space : YUV
Chroma subsampling : 4:2:0
Bit depth : 8 bits
Scan type : Progressive
Bits/(Pixel*Frame) : 0.114
Stream size : 708 MiB (80%)
Writing library : x264 core 148 r2638M 7599210
Encoding settings : cabac=1 / ref=10 / deblock=1:-3:-3 / analyse=0x3:0x133 / me=umh / subme=10 / psy=1 / psy_rd=1.00:0.10 / mixed_ref=1 / me_range=32 / chroma_me=1 / trellis=2 / 8x8dct=1 / cqm=0 / deadzone=21,11 / fast_pskip=0 / chroma_qp_offset=-3 / threads=5 / lookahead_threads=1 / sliced_threads=0 / nr=0 / decimate=1 / interlaced=0 / bluray_compat=0 / constrained_intra=0 / bframes=9 / b_pyramid=2 / b_adapt=2 / b_bias=0 / direct=1 / weightb=1 / open_gop=0 / weightp=2 / keyint=250 / keyint_min=25 / scenecut=40 / intra_refresh=0 / rc_lookahead=60 / rc=crf / mbtree=1 / crf=18.0 / qcomp=0.60 / qpmin=18 / qpmax=69 / qpstep=4 / ip_ratio=1.40 / aq=1:1.00
Language : English
Default : Yes
Forced : No
Color range : Limited
Color primaries : BT.709
Transfer characteristics : BT.709
Matrix coefficients : BT.709
DURATION : 00:59:25.960000000

Audio
ID : 2
Format : AC-3
Format/Info : Audio Coding 3
Mode extension : CM (complete main)
Format settings, Endianness : Big
Codec ID : A_AC3
Duration : 59mn 26s
Bit rate mode : Constant
Bit rate : 384 Kbps
Channel(s) : 6 channels
Channel positions : Front: L C R, Side: L R, LFE
Sampling rate : 48.0 KHz
Frame rate : 31.250 fps (1536 spf)
Bit depth : 32 bits
Compression mode : Lossy
Stream size : 163 MiB (18%)
Title : NewStudio.TV
Language : Russian
Default : Yes
Forced : No
DURATION : 00:59:26.752000000



Скачать Война.и.мир.War.and.Peace.(сезон.01).(Том.Харпер).[2016.драма.мелодрама.военный.история.экранизация.WEB-DLRip-AVC].[MVO.(NewStudio)].torrent без регистрации
Золото ЗОЛОТАЯ РАЗДАЧА! СКАЧАННОЕ НЕ ЗАСЧИТЫВАЕТСЯ! Золото
Дата: Зарегистрирован   [ Тип: внутренний ] Как тут cкачать?
MAGNET ссылка
MAGNET ссылка


Скачать .torrent

14 KB

Статус: проверено DHT
Скачан: торрент - 97 раз, раздача полностью - 31 раз
Размер: 4,89 GB
Оценка:  - (Голосов: 0)
Поблагодарили: 3
Поделиться ссылкой на эту раздачу с друзьями:
В контактеFacebookОдноклассникиTwitterLivejournalМой МирLiveinternet
 

 
Показать сообщения:    


Вы не можете начинать темы
Вы не можете отвечать на сообщения
Вы не можете редактировать свои сообщения
Вы не можете удалять свои сообщения
Вы не можете голосовать в опросах
Вы не можете прикреплять файлы к сообщениям
Вы можете скачивать файлы