Loading...
Error

Скачать Ярость чести / Rage of Honor (Гордон Хесслер) [1987, боевик, драма, DVDRip-AVC] [AVO (Ю. Немахов)] торрент без регистрации

 
Статистика раздачи
Размер:  741 MB   |    Скачан:  50 раз
Сидов:  1  [  0 KB/s  ]  
 
Автор Сообщение

Marsianka

[] 

Информация о фильме
Название: Ярость чести.
Оригинальное название: Rage of Honor
Год выхода: 1987
Жанр: боевик, драма
Режиссер: Гордон Хесслер
В ролях: Сё Косуги, Льюис Ван Берген, Робин Эванс, Джерри Гибсон, Чарльз Люсия,Ричард Уайли, Карлос Эстрада, Улис Дюмон, Алан Амиел, Армандо Каро

О фильме:
Косуги в роли следователя Сиро Танака из отдела по борьбе с наркотиками, который выбивает дух из подонков, пытавших и убивших его помощника Рэя. Нарушив приказ, он преследует преступников от Сингапура до Буэнос-Айреса. К тому же убийцы похитили подругу Сиро и увезли ее на секретную базу в джунглях Южной Америки. И теперь герою предстоит в одиночку противостоять целому отряду вооруженных и хорошо натренированных террористов… А махать руками и ногами Косуги, мы знаем, умеет…

Примечание:
В видеосалонах фильм назывался "Лучший боец"


Страна: США, Аргентина
Продолжительность: 01:31:53
Перевод: Авторский (одноголосый закадровый) Ю. Немахов

Файл
Формат: MKV
Кодек: Н.264
Качество: DVDRip-AVC
Видео: 724 х 544, 23,976 кадра/сек, 999 Кбит/сек
Звук: MP3, 48 КГц, 2 канала, 128 Кбит/сек
Субтитры: отсутствуют
Формат : Matroska
Версия формата : Version 2
Размер файла : 741 Мбайт
Продолжительность : 1 ч. 31 м.
Общий поток : 1128 Кбит/сек
Дата кодирования : UTC 2012-04-08 11:45:27
Программа кодирования : mkvmerge v5.3.0 ('I could have danced') built on Feb 9 2012 10:38:07
Библиотека кодирования : libebml v1.2.3 + libmatroska v1.3.0

Видео
Идентификатор : 1
Формат : AVC
Формат/Информация : Advanced Video Codec
Профиль формата : High@L3.0
Параметр CABAC формата : Да
Параметр ReFrames формата : 4 кадра
Режим смешивания : Header stripping
Идентификатор кодека : V_MPEG4/ISO/AVC
Продолжительность : 1 ч. 31 м.
Битрейт : 999 Кбит/сек
Ширина : 724 пикселей
Высота : 544 пикселя
Соотношение сторон : 4:3
Частота кадров : 23,976 кадра/сек
Цветовое пространство : YUV
Субдискретизация насыщенности : 4:2:0
Битовая глубина : 8 бит
Тип развёртки : Прогрессивная
Бит/(Пиксели*Кадры) : 0.106
Размер потока : 642 Мбайт (87%)
Библиотека кодирования : x264 core 120 r2164 da19765
Настройки программы : cabac=1 / ref=3 / deblock=1:0:0 / analyse=0x3:0x111 / me=hex / subme=7 / psy=1 / psy_rd=1.00:0.00 / mixed_ref=1 / me_range=16 / chroma_me=1 / trellis=1 / 8x8dct=1 / cqm=0 / deadzone=21,11 / fast_pskip=1 / chroma_qp_offset=-2 / threads=6 / sliced_threads=0 / nr=0 / decimate=1 / interlaced=0 / bluray_compat=0 / constrained_intra=0 / bframes=3 / b_pyramid=2 / b_adapt=1 / b_bias=0 / direct=1 / weightb=1 / open_gop=0 / weightp=2 / keyint=240 / keyint_min=23 / scenecut=40 / intra_refresh=0 / rc_lookahead=40 / rc=2pass / mbtree=1 / bitrate=999 / ratetol=1.0 / qcomp=0.60 / qpmin=0 / qpmax=69 / qpstep=4 / cplxblur=20.0 / qblur=0.5 / ip_ratio=1.40 / aq=1:1.00
Язык : English
Default : Да
Forced : Нет

Аудио
Идентификатор : 2
Формат : MPEG Audio
Версия формата : Version 1
Профиль формата : Layer 3
Режим : Joint stereo
Расширение режима : MS Stereo
Режим смешивания : Header stripping
Идентификатор кодека : A_MPEG/L3
Идентификатор кодека/Подсказка : MP3
Продолжительность : 1 ч. 31 м.
Вид битрейта : Постоянный
Битрейт : 128 Кбит/сек
Каналы : 2 канала
Частота : 48,0 КГц
Метод сжатия : С потерями
Размер потока : 84,1 Мбайт (11%)
Библиотека кодирования : LAME3.97
Default : Да
Forced : Нет



Скачать Ярость.чести.Rage.of.Honor.(Гордон.Хесслер).[1987.боевик.драма.DVDRip-AVC].[AVO.(Ю.Немахов)].torrent без регистрации
Золото ЗОЛОТАЯ РАЗДАЧА! СКАЧАННОЕ НЕ ЗАСЧИТЫВАЕТСЯ! Золото
Дата: Зарегистрирован   [ Тип: внутренний ] Как тут cкачать?
MAGNET ссылка
MAGNET ссылка


Скачать .torrent

15 KB

Статус: проверено DHT
Скачан: торрент - 50 раз, раздача полностью - 3 раз
Размер: 741 MB
Оценка:  - (Голосов: 0)
Поблагодарили: 1
Поделиться ссылкой на эту раздачу с друзьями:
В контактеFacebookОдноклассникиTwitterLivejournalМой МирLiveinternet
 

 
Показать сообщения:    


Вы не можете начинать темы
Вы не можете отвечать на сообщения
Вы не можете редактировать свои сообщения
Вы не можете удалять свои сообщения
Вы не можете голосовать в опросах
Вы не можете прикреплять файлы к сообщениям
Вы можете скачивать файлы