Loading...
Error

Скачать Пространство / The Expanse (сезон 01) (Роберт Либерман и др.) [2015, фантастика, триллер, драма, BDRip-HEVC] [1080p] 6х[MVO]+[Eng]+[Sub Rus, Eng] торрент без регистрации

Статистика раздачи
Размер:  30,85 GB   |    Скачан:  74 раза
Сидов:  1  [  0 KB/s  ]  
 
 
 
Автор Сообщение

МихаНЕзатор

[] 

Сезон 1, серии 1-10 из 10


Название: Пространство / Экспансия
Оригинальное название: The Expanse
Год выпуска: 2015
Страна: США
Жанр: научная фантастика, детектив
Режиссёр: Роберт Либерман, Терри МакДонаф

В ролях: Томас Джейн, Стивен Стрейт, Кэс Анвар, Доминик Типпер, Уэс Чэтэм, Шоре Агдашлу, Афина Карканис, Дрю Кэрримор, Чад Л. Коулмэн, Илайс Туфексис

Описание: Через двести лет от дня сегодняшнего некий сыщик, привыкший всё доводить до конца при любых обстоятельствах, в рамках расследования дела об исчезновении молодой женщины оказывается на борту звездолета, капитан которого решает помочь детективу в его непростом деле. Величайший заговор в истории человечества гарантируется, как и его непременное раскрытие.


Автор рипа: Alex_A

Продолжительность: ~00:42:00
Перевод: Профессиональный многоголосый закадровый [Jaskier, Lostfilm, Alexfilm, Baibako, OMSKBIRD records], профессиональный двухголосый закадровый [HamsterStudio]
Субтитры: русские (перевод - Вита Алая), английские

Качество: BDRip 1080p
Формат: MKV
Видео кодек: x265
Аудио кодек: DTS
Видео: 1920x1080, 23,976 fps, HEVC, ~4500-6500 kbps, 10 bit
Аудио: Rus, 48 kHz/24-bit, AC3 5.1, ~756 kbps | Jaskier
Аудио: Rus, 48 kHz/24-bit, AC3 5.1, ~756 kbps | LostFilm
Аудио: Rus, 48 kHz/24-bit, AC3 5.1, ~756 kbps | Alexfilm
Аудио: Rus, 48 kHz/24-bit, AC3 5.1, ~756 kbps | BaibaKo
Аудио: Rus, 48 kHz/24-bit, AC3 5.1, ~756 kbps | OMSKBIRD records
Аудио: Rus, 48 kHz/24-bit, AC3 5.1, ~756 kbps | HamsterStudio
Аудио: Eng, 48 kHz/16-bit, AC3 5.1, ~756 kbps | Оригинал
Навигация по главам: Присутствует

АНОНСЫ ПОПУЛЯРНЫХ РАЗДАЧ


Торрент обновлён, улучшен видеоряд, добавлена 10-я серия!

01. Дульсинея (Dulcinea)
02. Великая пустота (The Big Empty)
03. Не забудем "Кент" (Remember the Cant)
04. Ближний бой (CQB)
05. И снова к Палачу (Back to the Butcher)
06. На дне (Rock Bottom)
07. Ветряные мельницы (Windmills)
08. Трофей (Salvage)
09. Критическая масса (Critical Mass)
10. Пробуждение Левиафана (Leviathan Wakes)
- H.265/HEVC (High Efficiency Video Coding) - это новый стандарт кодирования видео.
- Стандарт H.265/HEVC является логическим продолжением стандарта H.264/AVC (Advanced Video Coding), и характеризуется более эффективными алгоритмами сжатия, а также поддержкой высокого разрешения вплоть до 8K UHD (8192x4320). Первая версия стандарта H.265 была опубликована в начале 2013 года.
- Рипы в фомате HEVC, в настоящее время не поддерживается большинством аппаратных проигрывателей.
- Для корректного воспроизведения может потребоваться обновление ПО.
- Владельцам несовместимого железа просьба не беспокоить, есть альтернативные релизы.
Общее
Уникальный идентификатор : 201065598415289292903299047402634431505 (0x9743D35F9854115E8DE614B6F6434C11)
Полное имя : e:HEVCThe Expanse (2015) 1080p HEVCCLUBThe.Expanse.S01E01.Dulcinea.1080p_HEVCCLUB.mkv
Формат : Matroska
Версия формата : Version 4 / Version 2
Размер файла : 3,41 Гбайт
Продолжительность : 44 м. 46 с.
Общий поток : 10,9 Мбит/сек
Название фильма : The Expanse [S01E01] - Dulcinea - HEVC.CLUB
Дата кодирования : UTC 2016-12-14 11:05:28
Программа кодирования : mkvmerge v9.4.0 ('Knurl') 64bit
Библиотека кодирования : libebml v1.3.4 + libmatroska v1.4.5
Обложка : Yes
Attachments : cover.jpg / Cover.jpg

Видео
Идентификатор : 1
Формат : HEVC
Формат/Информация : High Efficiency Video Coding
Профиль формата : Main 10@L4.1@High
Идентификатор кодека : V_MPEGH/ISO/HEVC
Продолжительность : 44 м. 46 с.
Битрейт : 5593 Кбит/сек
Ширина : 1920 пикселей
Высота : 1080 пикселей
Соотношение сторон : 16:9
Режим частоты кадров : Постоянный
Частота кадров : 23,976 (24000/1001) кадра/сек
Цветовое пространство : YUV
Субдискретизация насыщенности : 4:2:0
Битовая глубина : 10 бит
Бит/(Пиксели*Кадры) : 0.112
Размер потока : 1,75 Гбайт (51%)
Заголовок : HEVC.CLUB
Библиотека кодирования : x265 2.0+18-b0ec268aef60:[Windows][GCC 6.1.0][64 bit] 10bit
Настройки программы : wpp / ctu=32 / min-cu-size=8 / max-tu-size=32 / tu-intra-depth=2 / tu-inter-depth=2 / me=2 / subme=5 / merange=60 / no-rect / no-amp / max-merge=2 / temporal-mvp / no-early-skip / no-rskip / rdpenalty=0 / no-tskip / no-tskip-fast / no-strong-intra-smoothing / no-lossless / no-cu-lossless / no-constrained-intra / no-fast-intra / open-gop / no-temporal-layers / interlace=0 / keyint=250 / min-keyint=23 / scenecut=40 / rc-lookahead=60 / lookahead-slices=1 / bframes=8 / bframe-bias=0 / b-adapt=2 / ref=5 / limit-refs=3 / no-limit-modes / weightp / weightb / aq-mode=1 / qg-size=32 / aq-strength=0.50 / cbqpoffs=0 / crqpoffs=0 / rd=4 / psy-rd=2.00 / rdoq-level=1 / psy-rdoq=3.00 / log2-max-poc-lsb=8 / no-rd-refine / signhide / deblock=-3:-3 / no-sao / no-sao-non-deblock / b-pyramid / no-cutree / no-intra-refresh / rc=crf / crf=21.0 / qcomp=0.80 / qpmin=0 / qpmax=69 / qpstep=6 / vbv-maxrate=50000 / vbv-bufsize=50000 / crf-max=0.0 / ipratio=1.50 / pbratio=1.10
Default : Да
Forced : Да
Цветовой диапазон : Limited
Коэффициенты матрицы : BT.709

Аудио #1
Идентификатор : 2
Формат : DTS
Формат/Информация : Digital Theater Systems
Режим : 16
Параметр Endianness формата : Big
Идентификатор кодека : A_DTS
Продолжительность : 44 м. 46 с.
Вид битрейта : Постоянный
Битрейт : 756 Кбит/сек
Каналы : 6 каналов
Расположение каналов : Front: L C R, Side: L R, LFE
Частота : 48,0 КГц
Частота кадров : 93,750 кадра/сек (512 spf)
Битовая глубина : 24 бит
Метод сжатия : С потерями
Размер потока : 242 Мбайт (7%)
Заголовок : Jaskier
Язык : Russian
Default : Да
Forced : Нет

Аудио #2
Идентификатор : 3
Формат : DTS
Формат/Информация : Digital Theater Systems
Режим : 16
Параметр Endianness формата : Big
Идентификатор кодека : A_DTS
Продолжительность : 44 м. 46 с.
Вид битрейта : Постоянный
Битрейт : 756 Кбит/сек
Каналы : 6 каналов
Расположение каналов : Front: L C R, Side: L R, LFE
Частота : 48,0 КГц
Частота кадров : 93,750 кадра/сек (512 spf)
Битовая глубина : 24 бит
Метод сжатия : С потерями
Размер потока : 242 Мбайт (7%)
Заголовок : LostFilm
Язык : Russian
Default : Нет
Forced : Нет

Аудио #3
Идентификатор : 4
Формат : DTS
Формат/Информация : Digital Theater Systems
Режим : 16
Параметр Endianness формата : Big
Идентификатор кодека : A_DTS
Продолжительность : 44 м. 46 с.
Вид битрейта : Постоянный
Битрейт : 756 Кбит/сек
Каналы : 6 каналов
Расположение каналов : Front: L C R, Side: L R, LFE
Частота : 48,0 КГц
Частота кадров : 93,750 кадра/сек (512 spf)
Битовая глубина : 24 бит
Метод сжатия : С потерями
Размер потока : 242 Мбайт (7%)
Заголовок : Alexfilm
Язык : Russian
Default : Нет
Forced : Нет

Аудио #4
Идентификатор : 5
Формат : DTS
Формат/Информация : Digital Theater Systems
Режим : 16
Параметр Endianness формата : Big
Идентификатор кодека : A_DTS
Продолжительность : 44 м. 46 с.
Вид битрейта : Постоянный
Битрейт : 756 Кбит/сек
Каналы : 6 каналов
Расположение каналов : Front: L C R, Side: L R, LFE
Частота : 48,0 КГц
Частота кадров : 93,750 кадра/сек (512 spf)
Битовая глубина : 24 бит
Метод сжатия : С потерями
Размер потока : 242 Мбайт (7%)
Заголовок : BaibaKo
Язык : Russian
Default : Нет
Forced : Нет

Аудио #5
Идентификатор : 6
Формат : DTS
Формат/Информация : Digital Theater Systems
Режим : 16
Параметр Endianness формата : Big
Идентификатор кодека : A_DTS
Продолжительность : 44 м. 46 с.
Вид битрейта : Постоянный
Битрейт : 756 Кбит/сек
Каналы : 6 каналов
Расположение каналов : Front: L C R, Side: L R, LFE
Частота : 48,0 КГц
Частота кадров : 93,750 кадра/сек (512 spf)
Битовая глубина : 24 бит
Метод сжатия : С потерями
Размер потока : 242 Мбайт (7%)
Заголовок : OMSKBIRD records
Язык : Russian
Default : Нет
Forced : Нет

Аудио #6
Идентификатор : 7
Формат : DTS
Формат/Информация : Digital Theater Systems
Режим : 16
Параметр Endianness формата : Big
Идентификатор кодека : A_DTS
Продолжительность : 44 м. 46 с.
Вид битрейта : Постоянный
Битрейт : 756 Кбит/сек
Каналы : 6 каналов
Расположение каналов : Front: L C R, Side: L R, LFE
Частота : 48,0 КГц
Частота кадров : 93,750 кадра/сек (512 spf)
Битовая глубина : 24 бит
Метод сжатия : С потерями
Размер потока : 242 Мбайт (7%)
Заголовок : HamsterStudio
Язык : Russian
Default : Нет
Forced : Нет

Аудио #7
Идентификатор : 8
Формат : DTS
Формат/Информация : Digital Theater Systems
Режим : 16
Параметр Endianness формата : Big
Идентификатор кодека : A_DTS
Продолжительность : 44 м. 46 с.
Вид битрейта : Постоянный
Битрейт : 756 Кбит/сек
Каналы : 6 каналов
Расположение каналов : Front: L C R, Side: L R, LFE
Частота : 48,0 КГц
Частота кадров : 93,750 кадра/сек (512 spf)
Битовая глубина : 24 бит
Метод сжатия : С потерями
Размер потока : 242 Мбайт (7%)
Заголовок : Original
Язык : English
Default : Нет
Forced : Нет

Текст #1
Идентификатор : 9
Формат : UTF-8
Идентификатор кодека : S_TEXT/UTF8
Идентификатор кодека/Информация : UTF-8 Plain Text
Продолжительность : 44 м. 27 с.
Битрейт : 94 бит/сек
Count of elements : 556
Размер потока : 30,8 Кбайт (0%)
Заголовок : Перевод Виты Алой
Язык : Russian
Default : Нет
Forced : Нет

Текст #2
Идентификатор : 10
Формат : UTF-8
Идентификатор кодека : S_TEXT/UTF8
Идентификатор кодека/Информация : UTF-8 Plain Text
Продолжительность : 42 м. 26 с.
Битрейт : 59 бит/сек
Count of elements : 563
Размер потока : 18,5 Кбайт (0%)
Язык : English
Default : Нет
Forced : Нет

Меню
00:00:00.000 : en:00:00:00.000
00:04:28.560 : en:00:04:28.560
00:20:38.528 : en:00:20:38.528
00:35:37.260 : en:00:35:37.260



Скачать Пространство.The.Expanse.(сезон.01).(Роберт.Либерман.и.др.).[2015.фантастика.триллер.драма.BDRip-HEVC].[1080p].6х[MVO]+[Eng]+[Sub.Rus.Eng].torrent без регистрации
Золото ЗОЛОТАЯ РАЗДАЧА! СКАЧАННОЕ НЕ ЗАСЧИТЫВАЕТСЯ! Золото
Дата: Зарегистрирован   [ Тип: внутренний ] Как тут cкачать?
MAGNET ссылка
MAGNET ссылка


Скачать .torrent

79 KB

Статус: проверено DHT
Скачан: торрент - 74 раз, раздача полностью - 30 раз
Размер: 30,85 GB
Оценка:  5 (Голосов: 1)
Поблагодарили: 4
Поделиться ссылкой на эту раздачу с друзьями:
В контактеFacebookОдноклассникиTwitterLivejournalМой МирLiveinternet
 

 
Показать сообщения:    


Вы не можете начинать темы
Вы не можете отвечать на сообщения
Вы не можете редактировать свои сообщения
Вы не можете удалять свои сообщения
Вы не можете голосовать в опросах
Вы не можете прикреплять файлы к сообщениям
Вы можете скачивать файлы