Loading...
Error

Скачать В Филадельфии всегда солнечно / It's Always Sunny in Philadelphia (сезон 10) (Мэтт Сакман, Фред Сэвидж) [2015, комедия, ситком, чёрный юмор, WEB-DLRip] MVO (LostFilm) торрент без регистрации

 
Статистика раздачи
Размер:  3,12 GB   |    Скачан:  831 раз
Сидов:  1  [  0 KB/s  ]  
 
Автор Сообщение

МихаНЕзатор

[] 

В Филадельфии всегда солнечно / It's Always Sunny in Philadelphia


Год выпуска: 2015
Страна: США
Жанр: комедия, ситком, чёрный юмор
Продолжительность: ~ 00:23:00
Перевод: Профессиональный (многоголосый закадровый) LostFilm
Режиссёр: Мэтт Сакман, Фред Сэвидж

В ролях: Чарли Дэй, Кэйтлин Олсен, Гленн Хоуертон, Роб МакЭлхенни, Дэнни ДеВито, Мэри Элизабет Эллис, Линн Мари Стюарт, Дэвид Хорнсби, Джимми Симпсон, Нат Муни, Сэнди Мартин, Тэзи Серфес, Бриттани Дэниэл, Брайан Унгер, Трэвис Шульдт, Шон Пол Костильо, Грегори Скотт Камминс, Дэвид Гурейра, Энн Арчер, Эндрю Фридман, Джон Понцио, Кайл Дэвис, Лэнс Барбер, Ричард Серлен, Дэн Ван Уэрт, Стивен Коллинз, Дэннис Хоган, Дэннис Харт, Джонни Пембертон

Описание: Этот ситком повествует о четырех друзьях, которые держат ирландский бар в не самом лучшем районе Филадельфии. То же самое можно сказать и о самих героях — они враждебны и аморальны друг к другу, всегда ссорятся, врут и пытаются что-то друг другу доказать, попадая из-за этого в самые нелепые и смешнейшие ситуации.



Качество: WEB-DLRip
Формат: AVI
Видео: XviD, 720x400 (16:9), 23,976 fps, ~1915 kbps
Аудио 1: MP3, 48 kHz, 2 ch, 192 kbps - Rus
Субтитры: отсутствуют

АНОНСЫ ПОПУЛЯРНЫХ РАЗДАЧ
Сезон 10 - 2015Шайка бьёт рекорд Боггса (The Gang Beats Boggs)
Шайка устраивает группсвидания (The Gang Group Dates)
Возвращение Психо-Пита (Psycho Pete Returns)
Чарлибота (Charlie Work)
Шайка шпионит, как С.Ш.‏ (The Gang Spies Like U.S.)
Шайка опаздывает на яхту (The Gang Missess the Boat)
Мак мочит своего батю (Mac Kills His Dad)
Шайка играет в "Сто к одному" (The Gang Goes on Family Fight)
Фрэнк уходит на покой (Frank Retires)
Союз жоподёров: Мак и Чарли вступают в секту (Ass Kickers United: Mac and Charlie Join a Cult)
01. "Мак убивает своего папашу";
02. "Сезонные кредиты (?)" - возможно баг, а возможно серия про выращивание и продажу органических продуктов;
03. "Союз надирателей задниц: выход из тени" - название с IMDb;
04. "Шайка идёт на групповые свидания";
05. "Шайка скучает по своему плавучему дому / по затонувшей лодке" - отсылка к 6-ому сезону, лодка "Тонущий моряк";
06. "Фрэнк уходит на покой / на пенсию";
07. "Шайка идёт на передачу ФИЛАДЕЛЬФИЙСКИЕ РАСПРИ" - про игровое шоу на местном телевидении;
08. "Шайка за всеми шпионит как США" - вангую, это будет АД;
09. "Психо-Пит возвращается" - "Ад 2";
10. "Шайка уделывает Боггса" - имеется в виду бейсболист Уэйд Боггс, серия про попытку побить рекорд по числу выпитого пива на самолёте;
11. "Чарлина работа" - это название, кстати, тоже появилось на IMDb.
0. Затравка
1. Банда бьёт рекорд Богса
2. The Gang Group Dates
3. Psycho Pete Returns
4. Charlie Work
5. The Gang Spies Like U.S.
6. The Gang Misses the Boat
7. Mac Kills His Dad
8. The Gang Goes on Family Fight
9. Frank Retires
10. Ass Kickers United: Mac and Charlie Join a Cult
General
Complete name : C:\Its.Always.Sunny.in.Philadelphia.S10E03.rus.LostFilm.TV.avi
Format : AVI
Format/Info : Audio Video Interleave
File size : 331 MiB
Duration : 21mn 53s
Overall bit rate mode : Variable
Overall bit rate : 2 113 Kbps
Writing application : Nandub v1.0rc2
Writing library : Nandub build 1853/release
Video
ID : 0
Format : MPEG-4 Visual
Format profile : Advanced Simple@L5
Format settings, BVOP : No
Format settings, QPel : No
Format settings, GMC : No warppoints
Format settings, Matrix : Default (H.263)
Codec ID : XVID
Codec ID/Hint : XviD
Duration : 21mn 53s
Bit rate : 1 911 Kbps
Width : 720 pixels
Height : 400 pixels
Display aspect ratio : 16:9
Frame rate : 23.976 fps
Color space : YUV
Chroma subsampling : 4:2:0
Bit depth : 8 bits
Scan type : Progressive
Compression mode : Lossy
Bits/(Pixel*Frame) : 0.277
Stream size : 299 MiB (90%)
Writing library : XviD 1.2.1 (UTC 2008-12-04)
Audio
ID : 1
Format : MPEG Audio
Format version : Version 1
Format profile : Layer 3
Mode : Joint stereo
Mode extension : MS Stereo
Codec ID : 55
Codec ID/Hint : MP3
Duration : 21mn 53s
Bit rate mode : Variable
Bit rate : 192 Kbps
Channel(s) : 2 channels
Sampling rate : 48.0 KHz
Compression mode : Lossy
Stream size : 29.6 MiB (9%)
Alignment : Aligned on interleaves
Interleave, duration : 24 ms (0.58 video frame)
Interleave, preload duration : 495 ms
Writing library : LAME3.97b
Encoding settings : -m j -V 4 -q 3 -lowpass 18.6 --abr 192
Внимание! Раздача ведётся путём добавления новых серий; при каждом добавлении создаётся новый торрент. Чтобы начать докачку новой серии, пользователям необходимо сделать следующее:
(1) остановить скачивание,
(2) удалить старый торрент у себя из клиента (старые серии удалять не надо),
(3) скачать новый торрент и запустить его у себя в клиенте вместо старого, при этом указать клиенту путь в старую папку куда и должно происходить скачивание новых серий.
Ваш клиент при этом должен произвести хеширование (проверку) старой папки (если не производит сам - помогите ему сделать это), и будет докачивать только те серии которых у вас ещё нет. Старые серии при этом не удаляются, а продолжают раздаваться!
Eсли вы уже удалили старые серии, то предотвратить повторную закачку старых серий можно, отжав галочку в соответствующих местах при запуске нового торрента. По возможности, желательно не удалять старые серии как можно дольше чтобы релизёр не столько продолжал раздавать старые серии, а смог сконцентрироваться на новых.
[wirruss]



Скачать В.Филадельфии.всегда.солнечно.It's.Always.Sunny.in.Philadelphia.(сезон.10).(Мэтт.Сакман.Фред.Сэвидж).[2015.комедия.ситком.чёрный.юмор.WEB-DLRip].MVO.(LostFilm).torrent без регистрации
Золото ЗОЛОТАЯ РАЗДАЧА! СКАЧАННОЕ НЕ ЗАСЧИТЫВАЕТСЯ! Золото
Дата: Зарегистрирован   [ Тип: внутренний ] Как тут cкачать?
MAGNET ссылка
MAGNET ссылка


Скачать .torrent

17 KB

Статус: проверено DHT
Скачан: торрент - 831 раз, раздача полностью - 27 раз
Размер: 3,12 GB
Оценка:  4 (Голосов: 1)
Поблагодарили: 2
Поделиться ссылкой на эту раздачу с друзьями:
В контактеFacebookОдноклассникиTwitterLivejournalМой МирLiveinternet
 

 
Показать сообщения:    


Вы не можете начинать темы
Вы не можете отвечать на сообщения
Вы не можете редактировать свои сообщения
Вы не можете удалять свои сообщения
Вы не можете голосовать в опросах
Вы не можете прикреплять файлы к сообщениям
Вы можете скачивать файлы