Loading...
Error

Скачать Американская история ужасов: Отель / American Horror Story: Hotel (Сезон 05) (Брэдли Букер, Майкл Аппендаль) [2015, драма, триллер, ужасы, WEB-DL] [1080p] [MVO (LostFilm)]+[Original]+[Subs Eng] торрент без регистрации

 
Статистика раздачи
Размер:  24,5 GB   |    Скачан:  865 раз
Сидов:  1  [  0 KB/s  ]  
 
Автор Сообщение

МихаНЕзатор

[] 

Американская история ужасов: Отель
American Horror Story: Hotel

Страна: США[/size]
Год выпуска: 2015
Жанр: Драма, Триллер, Ужасы
Перевод: Профессиональный (многоголосый закадровый)
Продолжительность: ~50 минут
Русские субтитры: нет
Режиссёр: Брэдли Букер, Майкл Аппендаль, Лони Перистер, Райан Мерфи

В ролях: Кэти Бэйтс, Сара Полсон, Эван Питерс, Уэс Бентли, Мэтт Бомер, Хлоя Севиньи, Дэнис О'Хэр, Шайен Джексон, Анджела Бассетт, Леди Гага и другие.

Описание: Пятая часть антологии кошмаров и городских легенд, полная отсылок к лучшим традициям хоррор фильмов. В этот раз действие разворачивается в старом отеле в центре Лос-Анджелеса, который таит в себе много необъяснимых загадок. Звездой сезона стала Леди Гага в роли богатой графини и владелицы отеля «Кортес». В новом сезоне сразу два главных злодея, настоящий любовный треугольник, больше внимания к мужским ролям, отсылки к первому сезону и много-много крови. В «Отель» помимо постоянного актерского состава заселились Мэтт Бомер, Шайен Джексон, Макс Гринфилд и модель Наоми Кэмпбелл, уже успевшая блеснуть в «Империи». Кроме того с эпизодической ролью все-таки возвращается Джессика Лэнг.



Качество: WEB-DL 1080p
Формат: MKV
Видео: AVC, 1920x1080, 23.976 fps, ~5500 kbps
Аудио Rus: AC3, 48 KHz, 2 ch, 384 kbps (LostFilm)
Аудио Eng: AC3, 48 KHz, 6 ch, 384 kbps
Субтитры: русские (forced) [1, 6, 7, 10 серии], английские

АНОНСЫ ПОПУЛЯРНЫХ РАЗДАЧ

01. Заселение (Checking In)
02. Ходы и лестницы[/i] (Chutes and Ladders)
03. Мамочка[/size] (Mommy)
04. Ночь Дьявола[/font] (Devil's Night)
05. Обслуживание номеров (Room Service)
06. Номер 33 (Room 33)
07. Мерцание экрана (Flicker)
08. Убийца "Десять заповедей" (The Ten Commandments Killer)
09. Она жаждет мести (She Wants Revenge)
10. Она мстит (She Gets Revenge)
11. Королевская битва (Battle Royale)
12. Чувствуйте себя как дома (Be Our Guest)"]
General
Unique ID : 205498894287987211475387812310945040007 (0x9A99A5BC51AB243B83A7306F60D30687)
Complete name : C:\American Horror Story (Season 5) WEB-DL 1080p\01. Checking In.mkv
Format : Matroska
Format version : Version 4 / Version 2
File size : 2.49 GiB
Duration : 1h 2mn
Overall bit rate : 5 709 Kbps
Encoded date : UTC 2015-12-17 16:10:56
Writing application : mkvmerge v8.6.1 ('Flying') 64bit
Writing library : libebml v1.3.3 + libmatroska v1.4.4
DURATION : 01:02:17.299000000
NUMBER_OF_FRAMES : 833
NUMBER_OF_BYTES : 23392
_STATISTICS_WRITING_APP : mkvmerge v8.6.1 ('Flying') 64bit
_STATISTICS_WRITING_DATE_UT : 2015-12-17 16:10:56
_STATISTICS_TAGS : BPS DURATION NUMBER_OF_FRAMES NUMBER_OF_BYTES
Video
ID : 1
Format : AVC
Format/Info : Advanced Video Codec
Format profile : High@L4
Format settings, CABAC : Yes
Format settings, ReFrames : 4 frames
Codec ID : V_MPEG4/ISO/AVC
Duration : 1h 2mn
Bit rate : 4 828 Kbps
Width : 1 920 pixels
Height : 1 080 pixels
Display aspect ratio : 16:9
Frame rate mode : Constant
Frame rate : 23.976 fps
Color space : YUV
Chroma subsampling : 4:2:0
Bit depth : 8 bits
Scan type : Progressive
Bits/(Pixel*Frame) : 0.097
Stream size : 2.11 GiB (85%)
Language : English
Default : Yes
Forced : No
Color range : Limited
Color primaries : BT.709
Transfer characteristics : BT.709
Matrix coefficients : BT.709
Audio #1
ID : 2
Format : AC-3
Format/Info : Audio Coding 3
Mode extension : CM (complete main)
Format settings, Endianness : Big
Codec ID : A_AC3
Duration : 1h 2mn
Bit rate mode : Constant
Bit rate : 384 Kbps
Channel(s) : 2 channels
Channel positions : Front: L R
Sampling rate : 48.0 KHz
Compression mode : Lossy
Stream size : 172 MiB (7%)
Title : LostFilm
Language : Russian
Default : Yes
Forced : No
Audio #2
ID : 3
Format : AC-3
Format/Info : Audio Coding 3
Mode extension : CM (complete main)
Format settings, Endianness : Big
Codec ID : A_AC3
Duration : 1h 2mn
Bit rate mode : Constant
Bit rate : 384 Kbps
Channel(s) : 6 channels
Channel positions : Front: L C R, Side: L R, LFE
Sampling rate : 48.0 KHz
Compression mode : Lossy
Stream size : 172 MiB (7%)
Language : English
Default : No
Forced : No
Text #1
ID : 4
Format : UTF-8
Codec ID : S_TEXT/UTF8
Codec ID/Info : UTF-8 Plain Text
Title : Forced
Language : Russian
Default : Yes
Forced : No
Text #2
ID : 5
Format : UTF-8
Codec ID : S_TEXT/UTF8
Codec ID/Info : UTF-8 Plain Text
Language : English
Default : No
Forced : No
Внимание! Раздача ведётся путём добавления новых серий; при каждом добавлении создаётся новый торрент. Чтобы начать докачку новой серии, пользователям необходимо сделать следующее:
(1) остановить скачивание,
(2) удалить старый торрент у себя из клиента (старые серии удалять не надо),
(3) скачать новый торрент и запустить его у себя в клиенте вместо старого, при этом указать клиенту путь в старую папку куда и должно происходить скачивание новых серий.
Ваш клиент при этом должен произвести хеширование (проверку) старой папки (если не производит сам - помогите ему сделать это), и будет докачивать только те серии, которых у вас ещё нет. Старые серии при этом не удаляются, а продолжают раздаваться!
Если вы уже удалили старые серии, то предотвратить повторную закачку старых серий можно, отжав галочку в соответствующих местах при запуске нового торрента. По возможности, желательно не удалять старые серии как можно дольше, чтобы релизёр не столько продолжал раздавать старые серии, а смог сконцентрироваться на новых.



Скачать Американская.история.ужасов.Отель.American.Horror.Story.Hotel.(Сезон.05).(Брэдли.Букер.Майкл.Аппендаль).[2015.драма.триллер.ужасы.WEB-DL].[1080p].[MVO.(LostFilm)]+[Original]+[Subs.Eng].torrent без регистрации
Золото ЗОЛОТАЯ РАЗДАЧА! СКАЧАННОЕ НЕ ЗАСЧИТЫВАЕТСЯ! Золото
Дата: Зарегистрирован   [ Тип: внутренний ] Как тут cкачать?
MAGNET ссылка
MAGNET ссылка


Скачать .torrent

62 KB

Статус: проверено DHT
Скачан: торрент - 865 раз, раздача полностью - 42 раз
Размер: 24,5 GB
Оценка:  - (Голосов: 0)
Поблагодарили: 1
Поделиться ссылкой на эту раздачу с друзьями:
В контактеFacebookОдноклассникиTwitterLivejournalМой МирLiveinternet
 

 
Показать сообщения:    


Вы не можете начинать темы
Вы не можете отвечать на сообщения
Вы не можете редактировать свои сообщения
Вы не можете удалять свои сообщения
Вы не можете голосовать в опросах
Вы не можете прикреплять файлы к сообщениям
Вы можете скачивать файлы