Loading...
Error

Скачать Последние пантеры / The Last Panthers (сезон 01) (Йохан Ренк) [2015, драма, криминал, Blu-Ray] [1080p] [MVO (AlexFilm)]+[Eng] торрент без регистрации

 
Статистика раздачи
Размер:  22,66 GB   |    Скачан:  45 раз
Сидов:  5  [  0 KB/s  ]  
 
Автор Сообщение

МихаНЕзатор

[] 

Название: Последние пантеры
Оригинальное название: The Last Panthers
Год выхода: 2015
Жанр: драма, криминал
Режиссер: Йохан Ренк

В ролях: Саманта Мортон, Тахар Рахим, Джон Хёрт, Горан Богдан, Игор Бенчина, Никола Джурицко, Янн Эбонж, Кобна Холдбрук-Смит, Мусса Мааскри, Адам Нина...

О фильме: Сюжет повествует о реально существующей знаменитой интернациональной банде воров «Розовые пантеры», которая специализируется на краже драгоценностей. Эти ребята на мелочи не размениваются — обычно ценность их трофеев исчисляется десятками миллионов евро, поэтому каждое их новое ограбление обычно поднимает большой шум в мировой прессе. Тем не менее, команда международных экспертов пытается схватить неуловимых воров…

Страна: Великобритания, Франция
Продолжительность: ~00:45:00
Перевод: Профессиональный (многоголосый закадровый) AlexFilm
Субтитры: Отсутствуют



Файл
Кодек: MKV
Качество: BluRay 1080p

Видео: 1920x800, 25.000 fps, MPEG-4 AVC ~9400 kbps avg, 0.247 bit/pixel
Аудио Rus: 48 kHz, AC3 Dolby Digital, 3/2 (L,C,R,l,r) + LFE ch, ~640.00 kbps avg
Аудио Eng: 48 kHz, AC3 Dolby Digital, 3/2 (L,C,R,l,r) + LFE ch, ~640.00 kbps avg

АНОНСЫ ПОПУЛЯРНЫХ РАЗДАЧ


Торрент обновлён, добавлена 6-я серия!
Complete name : M:TorrentsvideoPanthers - Season 1 (AlexFilm) BluRay 1080pPanthers.s01e01.BluRay.1080p.Rus.Eng.AlexFilm.mkv
Format : Matroska
Format version : Version 4 / Version 2
File size : 3.76 GiB
Duration : 50mn 7s
Overall bit rate : 10.8 Mbps
Encoded date : UTC 2016-01-11 13:40:39
Writing application : mkvmerge v6.1.0 ('Old Devil') built on Mar 4 2013 09:10:42
Writing library : libebml v1.3.0 + libmatroska v1.4.0
Video
ID : 1
Format : AVC
Format/Info : Advanced Video Codec
Format profile : High@L4.1
Format settings, CABAC : Yes
Format settings, ReFrames : 5 frames
Codec ID : V_MPEG4/ISO/AVC
Duration : 50mn 7s
Bit rate : 9 466 Kbps
Width : 1 920 pixels
Height : 800 pixels
Display aspect ratio : 2.40:1
Frame rate mode : Constant
Frame rate : 25.000 fps
Color space : YUV
Chroma subsampling : 4:2:0
Bit depth : 8 bits
Scan type : Progressive
Bits/(Pixel*Frame) : 0.247
Stream size : 3.24 GiB (86%)
Writing library : x264 core 148 r2638 7599210
Encoding settings : cabac=1 / ref=5 / deblock=1:0:0 / analyse=0x3:0x133 / me=umh / subme=8 / psy=1 / psy_rd=1.00:0.00 / mixed_ref=1 / me_range=16 / chroma_me=1 / trellis=1 / 8x8dct=1 / cqm=0 / deadzone=21,11 / fast_pskip=0 / chroma_qp_offset=-2 / threads=6 / lookahead_threads=1 / sliced_threads=0 / nr=0 / decimate=1 / interlaced=0 / bluray_compat=0 / constrained_intra=0 / bframes=3 / b_pyramid=2 / b_adapt=2 / b_bias=0 / direct=3 / weightb=1 / open_gop=0 / weightp=2 / keyint=250 / keyint_min=25 / scenecut=40 / intra_refresh=0 / rc_lookahead=50 / rc=2pass / mbtree=1 / bitrate=9466 / ratetol=1.0 / qcomp=0.60 / qpmin=0 / qpmax=69 / qpstep=4 / cplxblur=20.0 / qblur=0.5 / ip_ratio=1.40 / aq=1:1.00
Default : Yes
Forced : No
Audio #1
ID : 2
Format : AC-3
Format/Info : Audio Coding 3
Mode extension : CM (complete main)
Format settings, Endianness : Big
Codec ID : A_AC3
Duration : 50mn 7s
Bit rate mode : Constant
Bit rate : 640 Kbps
Channel(s) : 6 channels
Channel positions : Front: L C R, Side: L R, LFE
Sampling rate : 48.0 KHz
Compression mode : Lossy
Stream size : 229 MiB (6%)
Title : DD 5.1 AlexFilm
Language : Russian
Default : Yes
Forced : No
Audio #2
ID : 3
Format : AC-3
Format/Info : Audio Coding 3
Mode extension : CM (complete main)
Format settings, Endianness : Big
Codec ID : A_AC3
Duration : 50mn 7s
Bit rate mode : Constant
Bit rate : 640 Kbps
Channel(s) : 6 channels
Channel positions : Front: L C R, Side: L R, LFE
Sampling rate : 48.0 KHz
Compression mode : Lossy
Stream size : 229 MiB (6%)
Title : DD 5.1 Original
Language : Russian
Default : No
Forced : No
Menu
00:00:00.000 : en:00:00:00.000
00:07:47.480 : en:00:07:47.480
00:17:04.880 : en:00:17:04.880
00:25:34.720 : en:00:25:34.720
00:33:57.160 : en:00:33:57.160
00:42:26.960 : en:00:42:26.960
Внимание! Раздача ведётся путём добавления новых серий; при каждом добавлении создаётся новый торрент. Чтобы начать докачку новой серии, пользователям необходимо сделать следующее:
(1) остановить скачивание,
(2) удалить старый торрент у себя из клиента (старые серии удалять не надо),
(3) скачать новый торрент и запустить его у себя в клиенте вместо старого, при этом указать клиенту путь в старую папку куда и должно происходить скачивание новых серий.

Ваш клиент при этом должен произвести хеширование (проверку) старой папки (если не производит сам - помогите ему сделать это), и будет докачивать только те серии которых у вас ещё нет. Старые серии при этом не удаляются, а продолжают раздаваться!

Eсли вы уже удалили старые серии, то предотвратить повторную закачку старых серий можно, отжав галочку в соответсвующих местах при запуске нового торрента. По возможности, желательно не удалять старые серии как можно дольше чтобы релизёр не столько продолжал раздавать старые серии, а смог сконцентрироваться на новых.



Скачать Последние.пантеры.The.Last.Panthers.(сезон.01).(Йохан.Ренк).[2015.драма.криминал.Blu-Ray].[1080p].[MVO.(AlexFilm)]+[Eng].torrent без регистрации
Золото ЗОЛОТАЯ РАЗДАЧА! СКАЧАННОЕ НЕ ЗАСЧИТЫВАЕТСЯ! Золото
Дата: Зарегистрирован   [ Тип: внешний ] Как тут cкачать?
MAGNET ссылка
MAGNET ссылка


Скачать .torrent

115 KB

Статус: проверено DHT
Скачан: торрент - 45 раз, раздача полностью - 1 раз
Размер: 22,66 GB
Оценка:  - (Голосов: 0)
Поблагодарили: 0
Поделиться ссылкой на эту раздачу с друзьями:
В контактеFacebookОдноклассникиTwitterLivejournalМой МирLiveinternet
 

 
Показать сообщения:    


Вы не можете начинать темы
Вы не можете отвечать на сообщения
Вы не можете редактировать свои сообщения
Вы не можете удалять свои сообщения
Вы не можете голосовать в опросах
Вы не можете прикреплять файлы к сообщениям
Вы можете скачивать файлы