Loading...
Error

Скачать Твин Пикс / Twin Peaks (1-2 сезоны: 1-30 серии из 30) (Дэвид Линч, Дайан Китон, Джонатан Сэнгер) [1990-1991 г., Триллер, драма, криминал, детектив, BDRip 720p] MVO, AVO торрент без регистрации

 
Статистика раздачи
Размер:  104,54 GB   |    Скачан:  881 раз
Сидов:  1  [  57 KB/s  ]  
 
Автор Сообщение

mihis

[] 

Твин Пикс / Twin Peaks

«A town where everyone knows everyone and nothing is what it seems»

1-2 сезоны: 30 серий

Год выпуска: 1990-1991
Страна: США, Lynch/Frost Productions, Propaganda Films, Spelling Entertainment, Twin Peaks Productions Inc.
Жанр: Триллер, драма, криминал, детектив
Продолжительность: 2 ~ 01:30:00, 28 x 00:47:00
Перевод:
Профессиональный (многоголосый, закадровый) Sci-Fi, ОРТ
Авторский (одноголосый, закадровый) Сербин, Живов, Савченко
Оригинал
Субтитры: Русские, английские

Режиссер: Дэвид Линч, Дайан Китон, Джонатан Сэнгер

В ролях: Кайл МакЛахлан, Майкл Онткин, Шерил Ли, Лара Флинн Бойл, Шерилин Фенн, Рэй Уайз, Мигель Феррер, Дэвид Линч, Билли Зейн, Хезер Грэм, Мэдчен Эмик, Дэна Эшбрук, Ричард Беймер, Уоррен Фрост, Пегги Липтон, Джеймс Маршалл, Эверет МакГилл, Джек Нэнс, Джоан Чен, Кимми Робертсон, Майкл Хорс, Пайпер Лори, Гарри Гоаз, Эрик ДаРе, Уэнди Роби, Расс Тэмблин, Дон С. Дэвис, Крис Малки, Гаррисон Хершбергер, Грэйс Забриски, Катрин Э. Колсон, Йен Бьюкэнэн

Описание: История начинается с известия о находке обнаженного тела Лоры Палмер, «завернутого в полиэтилен» и выброшенного волнами на берег озера. В ходе расследования перед внимательными взглядами агента Купера, шерифа Трумана и его помощников проходят разные жители Твин Пикс. Постепенно зритель открывает для себя темную и страшную сторону жизни обитателей на первый взгляд тихого и мирного городка.



Качество: BDRip 720p
Формат: MKV
Видео кодек: х264
Аудио кодек: AC3
Видео: AVC, 960x720 (4:3), High@L4.1, 9 500 Kbps, 23.976 fps (0.575 bit/pixel)
Аудио #1: 48 kHz, AC3 Dolby Digital, 2/0 (L,R), ~192.00 kbps MVO Sci-Fi
Аудио #2: 48 kHz, AC3 Dolby Digital, 2/0 (L,R), ~192.00 kbps MVO ОРТ
Аудио #3: 48 kHz, AC3 Dolby Digital, 3/2 (L,C,R,l,r) + LFE ch, ~448.00 kbps AVO Сербин
Аудио #4: 48 kHz, AC3 Dolby Digital, 3/2 (L,C,R,l,r) + LFE ch, 192.00~448.00 kbps AVO 1 Сезон 1 серия Гаврилов, 2-8 серия Живов
Аудио #5: 48 kHz, AC3 Dolby Digital, 2/0 (L,R), ~192.00 kbps AVO Савченко
Аудио #6: 48 kHz, AC3 Dolby Digital, 3/2 (L,C,R,l,r) + LFE ch, ~448.00 kbps Eng
Общее
Уникальный идентификатор : 183273130010945877130408631386871716422 (0x89E11EF3E3D4E3EAB2D9ECCA5E785A46)
Полное имя : E:\Video\Tvin.Piks.(1-2.sezon).1990-1992.x264.BDRip.720p_MediaClub\Tvin.Piks.(1.sezon).1990.x264.BDRip.720p_MediaClub\Tvin.Piks.(1.sezon.02.seriya.iz.08).1990.x264.BDRip.720p_MediaClub.mkv
Формат : Matroska
Версия формата : Version 4 / Version 2
Размер файла : 3,72 Гбайт
Продолжительность : 46 м.
Общий поток : 11,4 Мбит/сек
Название фильма : ReJIiZ MediaClub by BenderBEST
Дата кодирования : UTC 2014-08-12 09:04:28
Программа кодирования : mkvmerge v6.9.1 ('Blue Panther') 64bit built on Apr 18 2014 18:23:38
Библиотека кодирования : libebml v1.3.0 + libmatroska v1.4.1

Видео
Идентификатор : 1
Формат : AVC
Формат/Информация : Advanced Video Codec
Профиль формата : High@L4.1
Параметр CABAC формата : Да
Параметр ReFrames формата : 12 кадров
Идентификатор кодека : V_MPEG4/ISO/AVC
Продолжительность : 46 м.
Битрейт : 9523 Кбит/сек
Ширина : 960 пикселей
Высота : 720 пикселей
Соотношение сторон : 4:3
Режим частоты кадров : Постоянный
Частота кадров : 23,976 кадра/сек
Цветовое пространство : YUV
Субдискретизация насыщенности : 4:2:0
Битовая глубина : 8 бит
Тип развёртки : Прогрессивная
Бит/(Пиксели*Кадры) : 0.575
Размер потока : 3,10 Гбайт (83%)
Библиотека кодирования : x264 core 133 r2334 a3ac64b
Настройки программы : cabac=1 / ref=12 / deblock=1:-3:-3 / analyse=0x3:0x133 / me=umh / subme=10 / psy=1 / psy_rd=1.10:0.00 / mixed_ref=1 / me_range=24 / chroma_me=1 / trellis=2 / 8x8dct=1 / cqm=0 / deadzone=21,11 / fast_pskip=0 / chroma_qp_offset=-2 / threads=12 / lookahead_threads=2 / sliced_threads=0 / nr=0 / decimate=0 / interlaced=0 / bluray_compat=0 / constrained_intra=0 / bframes=8 / b_pyramid=2 / b_adapt=2 / b_bias=0 / direct=3 / weightb=1 / open_gop=0 / weightp=2 / keyint=250 / keyint_min=23 / scenecut=40 / intra_refresh=0 / rc_lookahead=60 / rc=crf / mbtree=0 / crf=17.5 / qcomp=0.70 / qpmin=0 / qpmax=69 / qpstep=4 / vbv_maxrate=50000 / vbv_bufsize=62500 / crf_max=0.0 / nal_hrd=none / ip_ratio=1.30 / pb_ratio=1.20 / aq=1:0.70
Язык : English
Default : Да
Forced : Нет

Аудио #1
Идентификатор : 2
Формат : AC-3
Формат/Информация : Audio Coding 3
Расширение режима : CM (complete main)
Параметр Endianness формата : Big
Идентификатор кодека : A_AC3
Продолжительность : 46 м.
Вид битрейта : Постоянный
Битрейт : 192 Кбит/сек
Каналы : 2 канала
Расположение каналов : Front: L R
Частота : 48,0 КГц
Битовая глубина : 16 бит
Метод сжатия : С потерями
Размер потока : 64,1 Мбайт (2%)
Заголовок : Sci-Fi
Язык : Russian
Default : Да
Forced : Нет

Аудио #2
Идентификатор : 3
Формат : AC-3
Формат/Информация : Audio Coding 3
Расширение режима : CM (complete main)
Параметр Endianness формата : Big
Идентификатор кодека : A_AC3
Продолжительность : 46 м.
Вид битрейта : Постоянный
Битрейт : 192 Кбит/сек
Каналы : 2 канала
Расположение каналов : Front: L R
Частота : 48,0 КГц
Битовая глубина : 16 бит
Метод сжатия : С потерями
Размер потока : 64,1 Мбайт (2%)
Заголовок : ОРТ
Язык : Russian
Default : Нет
Forced : Нет

Аудио #3
Идентификатор : 4
Формат : AC-3
Формат/Информация : Audio Coding 3
Расширение режима : CM (complete main)
Параметр Endianness формата : Big
Идентификатор кодека : A_AC3
Продолжительность : 46 м.
Вид битрейта : Постоянный
Битрейт : 448 Кбит/сек
Каналы : 6 каналов
Расположение каналов : Front: L C R, Side: L R, LFE
Частота : 48,0 КГц
Битовая глубина : 16 бит
Метод сжатия : С потерями
Размер потока : 149 Мбайт (4%)
Заголовок : Юрий Сербин
Язык : Russian
Default : Нет
Forced : Нет

Аудио #4
Идентификатор : 5
Формат : AC-3
Формат/Информация : Audio Coding 3
Расширение режима : CM (complete main)
Параметр Endianness формата : Big
Идентификатор кодека : A_AC3
Продолжительность : 46 м.
Вид битрейта : Постоянный
Битрейт : 192 Кбит/сек
Каналы : 2 канала
Расположение каналов : Front: L R
Частота : 48,0 КГц
Битовая глубина : 16 бит
Метод сжатия : С потерями
Размер потока : 64,1 Мбайт (2%)
Заголовок : Юрий Живов
Язык : Russian
Default : Нет
Forced : Нет

Аудио #5
Идентификатор : 6
Формат : AC-3
Формат/Информация : Audio Coding 3
Расширение режима : CM (complete main)
Параметр Endianness формата : Big
Идентификатор кодека : A_AC3
Продолжительность : 46 м.
Вид битрейта : Постоянный
Битрейт : 192 Кбит/сек
Каналы : 2 канала
Расположение каналов : Front: L R
Частота : 48,0 КГц
Битовая глубина : 16 бит
Метод сжатия : С потерями
Размер потока : 64,1 Мбайт (2%)
Заголовок : Алексей Савченко
Язык : Russian
Default : Нет
Forced : Нет

Аудио #6
Идентификатор : 7
Формат : AC-3
Формат/Информация : Audio Coding 3
Расширение режима : CM (complete main)
Параметр Endianness формата : Big
Идентификатор кодека : A_AC3
Продолжительность : 46 м.
Вид битрейта : Постоянный
Битрейт : 448 Кбит/сек
Каналы : 6 каналов
Расположение каналов : Front: L C R, Side: L R, LFE
Частота : 48,0 КГц
Битовая глубина : 16 бит
Метод сжатия : С потерями
Размер потока : 149 Мбайт (4%)
Язык : English
Default : Нет
Forced : Нет

Текст #1
Идентификатор : 8
Формат : UTF-8
Идентификатор кодека : S_TEXT/UTF8
Идентификатор кодека/Информация : UTF-8 Plain Text
Язык : Russian
Default : Нет
Forced : Нет

Текст #2
Идентификатор : 9
Формат : UTF-8
Идентификатор кодека : S_TEXT/UTF8
Идентификатор кодека/Информация : UTF-8 Plain Text
Язык : English
Default : Нет
Forced : Нет

Текст #3
Идентификатор : 10
Формат : UTF-8
Идентификатор кодека : S_TEXT/UTF8
Идентификатор кодека/Информация : UTF-8 Plain Text
Заголовок : SDH
Язык : English
Default : Нет
Forced : Нет

Меню
00:00:00.000 : en:Chapter 1
00:14:32.246 : en:Chapter 2
00:23:44.131 : en:Chapter 3
00:34:05.752 : en:Chapter 4
00:45:37.985 : en:Chapter 5
Сатурн, 2008 год
Победитель (1):
Лучшее DVD-издание классического телесериала — «The Definitive Gold Box Edition»


Золотой глобус, 1991 год
Победитель (3):
Лучшая мужская роль на ТВ (драма) ( Кайл МакЛоклен )
Лучшая актриса второго плана мини-сериала или фильма на ТВ ( Пайпер Лори )
Лучший драматический сериал
Номинации (1):
Лучшая актриса второго плана мини-сериала или фильма на ТВ (Шерилин Фенн)


Эмми, 1991 год
Номинации (2):
Лучшая мужская роль в драматическом сериале (Кайл МакЛоклен)
Лучшая женская роль второго плана в драматическом сериале (Пайпер Лори)


Эмми, 1990 год
Номинации (4):
Лучший драматический сериал
Лучшая мужская роль в драматическом сериале (Кайл МакЛоклен)
Лучшая женская роль в драматическом сериале (Пайпер Лори)
Лучшая женская роль второго плана в драматическом сериале (Шерилин Фенн)
1 Сезон
01. Происшествие на северо-западе (Пилот) / Northwest Passage (Pilot)
02. Следы в никуда / Traces to Nowhere
03. Дзен, или Умение поймать убийцу / Zen, or the Skill to Catch a Killer
04. Покойся с болью / Rest in Pain
05. Однорукий / The One-Armed Man
06. Сны Купера / Cooper's Dreams
07. Время осмысления / Realization Time
08. Последний вечер / The Last Evening
2 Сезон
01. Да пребудет с тобой Великан / May the Giant Be with You
02. Кома / Coma
03. Человек за стеклом / The Man Behind Glass
04. Тайный дневник Лоры / Laura's Secret Diary
05. Проклятие Орхидеи / The Orchid's Curse
06. Демоны / Demons
07. Одинокие души / Lonely Souls
08. Поездка с мёртвой девушкой / Drive with a Dead Girl
09. Самосуд / Arbitrary Law
10. Спор между братьями / Dispute Between Brothers
11. Бал-маскарад / Masked Ball
12. Чёрная вдова / The Black Widow
13. Шах и мат / Checkmate
14. Двойная игра / Double Play
15. Рабы и хозяева / Slaves and Masters
16. Обречённая / The Condemned Woman
17. Раны и шрамы / Wounds and Scars
18. На крыльях любви / On the Wings of Love
19. Вариации в отношениях / Variations on Relations
20. Тропа в Чёрный Вигвам / The Path to the Black Lodge
21. Мисс Твин Пикс / Miss Twin Peaks
22. Между жизнью и смертью / Beyond Life and Death



Скачать Твин.Пикс.Twin.Peaks.(1-2.сезоны.1-30.серии.из.30).(Дэвид.Линч.Дайан.Китон.Джонатан.Сэнгер).[1990-1991.г.Триллер.драма.криминал.детектив.BDRip.720p].MVO.AVO.torrent без регистрации
Золото ЗОЛОТАЯ РАЗДАЧА! СКАЧАННОЕ НЕ ЗАСЧИТЫВАЕТСЯ! Золото
Дата: Зарегистрирован   [ Тип: внутренний ] Как тут cкачать?
MAGNET ссылка
MAGNET ссылка


Скачать .torrent

267 KB

Статус: проверено DHT
Скачан: торрент - 881 раз, раздача полностью - 13 раз
Размер: 104,54 GB
Оценка:  5 (Голосов: 2)
Поблагодарили: 3
Поделиться ссылкой на эту раздачу с друзьями:
В контактеFacebookОдноклассникиTwitterLivejournalМой МирLiveinternet
 

 

blrmogilev

[] 

Дайте скорость
 
Показать сообщения:    


Вы не можете начинать темы
Вы не можете отвечать на сообщения
Вы не можете редактировать свои сообщения
Вы не можете удалять свои сообщения
Вы не можете голосовать в опросах
Вы не можете прикреплять файлы к сообщениям
Вы можете скачивать файлы