Loading...
Error

Скачать Миллиарды / Billions (Сезон 01) ( Эми Дж. Кауфман, Брайан Коппельман, Дэвид Левин) [2016, драма, HDTVRip-AVC] [MVO] (NewStudio) + [Orig] торрент без регистрации

 
Статистика раздачи
Размер:  13,74 GB   |    Скачан:  96 раз
Сидов:  1  [  0 KB/s  ]  
 
Автор Сообщение

leon030982

[] 

Миллиарды / Billions


Год выпуска: 2016
Страна: США
Жанр: драма
Продолжительность: 1х~ 01:00:00
Перевод: Профессиональный (многоголосный, закадровый) [NewStudio]
Субтитры: нет

Режиссёры: Эми Дж. Кауфман, Брайан Коппельман, Дэвид Левин

В ролях: Дэмиэн Льюис, Пол Джаматти, Мэгги Сифф, Малин Акерман, Тоби Леонард Мур, Дэвид Костабайл, Дэниэл К. Исаак, Фрэнк Хартс и др.


В мире власти и больших денег, в самом сердце Нью- Йорка, вовсю идет противостояние амбициозного финансиста с Уолл-стрит Бобби Аксельрода и принципиального федерального прокурора Чака Родса.



Качество: HDTVRip-AVC
Формат: MKV
Видео: MPEG-4 AVC, ~ 2100 Кбит/с, 1024x576, ~23.976 fps
Аудио №1: AC3, 48 kHz, 6 ch, 384 kbps [MVO]
Аудио №2: AC3, 48 kHz, 6 ch, 384 kbps [ENG]

Рип: Игорь_Владимирович

Код:

General
Unique ID                                : 196917115575090066219135474105379680772 (0x9424DB60BCBA58F5B4283D5331377204)
Complete name                            : E:\Billions.s01.HDTVRip.(AVC)-ИВ\Billions.s01e01.HDTVRip.(AVC)-ИВ.mkv
Format                                   : Matroska
Format version                           : Version 4 / Version 2
File size                                : 1.20 GiB
Duration                                 : 59mn 45s
Overall bit rate                         : 2 866 Kbps
Movie name                               : Billions.s01e01 - ИВ
Encoded date                             : UTC 2016-01-17 06:45:53
Writing application                      : mkvmerge v7.8.0 ('River Man') 32bit built on Apr  3 2015 12:11:22
Writing library                          : libebml v1.3.1 + libmatroska v1.4.2

Video
ID                                       : 1
Format                                   : AVC
Format/Info                              : Advanced Video Codec
Format profile                           : High@L3.1
Format settings, CABAC                   : Yes
Format settings, ReFrames                : 2 frames
Codec ID                                 : V_MPEG4/ISO/AVC
Duration                                 : 59mn 45s
Bit rate                                 : 2 100 Kbps
Width                                    : 1 024 pixels
Height                                   : 576 pixels
Display aspect ratio                     : 16:9
Frame rate mode                          : Constant
Frame rate                               : 23.976 fps
Color space                              : YUV
Chroma subsampling                       : 4:2:0
Bit depth                                : 8 bits
Scan type                                : Progressive
Bits/(Pixel*Frame)                       : 0.148
Stream size                              : 872 MiB (71%)
Title                                    : Billions.s01e01 - ИВ
Writing library                          : x264 core 129
Encoding settings                        : cabac=1 / ref=2 / deblock=1:0:0 / analyse=0x3:0x113 / me=hex / subme=6 / psy=1 / psy_rd=1.00:0.00 / mixed_ref=1 / me_range=16 / chroma_me=1 / trellis=0 / 8x8dct=1 / cqm=0 / deadzone=21,11 / fast_pskip=1 / chroma_qp_offset=-2 / threads=2 / lookahead_threads=1 / sliced_threads=0 / nr=0 / decimate=1 / interlaced=0 / bluray_compat=0 / constrained_intra=0 / bframes=0 / weightp=2 / keyint=250 / keyint_min=25 / scenecut=40 / intra_refresh=0 / rc_lookahead=40 / rc=2pass / mbtree=1 / bitrate=2100 / ratetol=1.0 / qcomp=0.60 / qpmin=10 / qpmax=51 / qpstep=4 / cplxblur=20.0 / qblur=0.5 / ip_ratio=1.41 / aq=1:1.00
Language                                 : English
Default                                  : Yes
Forced                                   : No

Audio #1
ID                                       : 2
Format                                   : AC-3
Format/Info                              : Audio Coding 3
Mode extension                           : CM (complete main)
Format settings, Endianness              : Big
Codec ID                                 : A_AC3
Duration                                 : 59mn 45s
Bit rate mode                            : Constant
Bit rate                                 : 384 Kbps
Channel(s)                               : 6 channels
Channel positions                        : Front: L C R, Side: L R, LFE
Sampling rate                            : 48.0 KHz
Compression mode                         : Lossy
Stream size                              : 164 MiB (13%)
Language                                 : Russian
Default                                  : Yes
Forced                                   : Yes

Audio #2
ID                                       : 3
Format                                   : AC-3
Format/Info                              : Audio Coding 3
Mode extension                           : CM (complete main)
Format settings, Endianness              : Big
Codec ID                                 : A_AC3
Duration                                 : 59mn 45s
Bit rate mode                            : Constant
Bit rate                                 : 384 Kbps
Channel(s)                               : 6 channels
Channel positions                        : Front: L C R, Side: L R, LFE
Sampling rate                            : 48.0 KHz
Compression mode                         : Lossy
Stream size                              : 164 MiB (13%)
Language                                 : English
Default                                  : No
Forced                                   : No
Внимание! Раздача ведётся путём добавления новых серий; при каждом добавлении создаётся новый торрент. Чтобы начать докачку новой серии, пользователям необходимо сделать следующее:
(1) остановить скачивание,
(2) удалить старый торрент у себя из клиента (старые серии удалять не надо),
(3) скачать новый торрент и запустить его у себя в клиенте вместо старого, при этом указать клиенту путь в старую папку куда и должно происходить скачивание новых серий.
Ваш клиент при этом должен произвести хеширование (проверку) старой папки (если не производит сам - помогите ему сделать это), и будет докачивать только те серии которых у вас ещё нет. Старые серии при этом не удаляются, а продолжают раздаваться!
Eсли вы уже удалили старые серии, то предотвратить повторную закачку старых серий можно, отжав галочку в соответствующих местах при запуске нового торрента. По возможности, желательно не удалять старые серии как можно дольше чтобы релизёр не столько продолжал раздавать старые серии, а смог сконцентрироваться на новых.



Скачать Миллиарды.Billions.(Сезон.01).(.Эми.Дж.Кауфман.Брайан.Коппельман.Дэвид.Левин).[2016.драма.HDTVRip-AVC].[MVO].(NewStudio).+.[Orig].torrent без регистрации
Золото ЗОЛОТАЯ РАЗДАЧА! СКАЧАННОЕ НЕ ЗАСЧИТЫВАЕТСЯ! Золото
Дата: Зарегистрирован   [ Тип: внутренний ] Как тут cкачать?
MAGNET ссылка
MAGNET ссылка


Скачать .torrent

70 KB

Статус: проверено DHT
Скачан: торрент - 96 раз, раздача полностью - 0 раз
Размер: 13,74 GB
Оценка:  5 (Голосов: 3)
Поблагодарили: 2
Поделиться ссылкой на эту раздачу с друзьями:
В контактеFacebookОдноклассникиTwitterLivejournalМой МирLiveinternet
 

 

leon030982

[] 

Код:

4-я серия
 

goodgerman

[] 

bf
 

leon030982

[] 

Цитата:

Торент заменен! Добавлены 5-11 серии
 

leon030982

[] 

+12 серия! Финал сезона
 
Показать сообщения:    


Вы не можете начинать темы
Вы не можете отвечать на сообщения
Вы не можете редактировать свои сообщения
Вы не можете удалять свои сообщения
Вы не можете голосовать в опросах
Вы не можете прикреплять файлы к сообщениям
Вы можете скачивать файлы