Loading...
Error

Скачать Изобретение Мореля / L'invenzione di Morel (Эмидио Греко) [1974, фантастика, DVDRip-AVC] [VO]+[Sub]x3 торрент без регистрации

 
Статистика раздачи
Размер:  1,97 GB   |    Скачан:  40 раз

Полного источника не было: 25 минут

 
Автор Сообщение

Marsianka

[] 

Информация о фильме
Название: Изобретение Мореля
Оригинальное название: L'invenzione di Morel
Год выхода: 1974
Жанр: фантастика
Режиссер: Эмидио Греко / Emidio Greco
В ролях: Анна Карина, Джулио Броджи, Джон Стайнер, Анна-Мария Герарди, Эцио Марано, Маргарет Ле Ван, Клаудио Трионфи, Лаура Де Марчини

О фильме:
Убегая от преследования полиции, герой оказывается на острове. Остров необитаем. Но однажды он видит на высоких скалах силуэты мужчины и женщины, одетых старомодно и кажущихся приятно проводящими отпуск. Следя за ними, он узнает, что молодую женщину зовут Фаустина. Складывается впечатление, что Фаустина видит его, но не подает вида. Он убежден, что должен помочь, поэтому пытается поговорить с ней наедине...

Экранизация одноименного романа Адольфо Бьой Касареса (1940), использованного Аленом Роб-Грийе при написании сценария фильма "Прошлым летом в Мариенбаде"


Страна: Италия
Студия: Alga Cinematografica, Mount Street Film, Ministero del Turismo e dello Spettacolo
Продолжительность: 01:46:57
Перевод: Любительский одноголосый

Файл
Кодек: h.264
Качество: DVDRip-AVC
Видео: 720x544 (1.882) @ 1024x544 (анаморф), 25.000 fps, AVC, ~2250 Kbps, 0.230 bits/pixel

1) Итальянский, 48.0 KHz, AC3, 2 ch, 192 Kbps
2) Русский, 48.0 KHz, AC3, 2 ch, 192 Kbps
Субтитры:
1) Русские, VobSub
2) Английские, VobSub
3) Французские, VobSub
Общее
Уникальный идентификатор : 240208657802475555934739368547511146662 (0xB4B68133C698574A9256BC3BF73798A6)
Полное имя : D:FilmsIzobretenie_Morelya.1974.DVDRip-AVC.mkv
Формат : Matroska
Версия формата : Version 4 / Version 2
Размер файла : 1,97 Гбайт
Продолжительность : 1 ч. 46 м.
Общий поток : 2638 Кбит/сек
Дата кодирования : UTC 2013-06-12 15:31:51
Программа кодирования : mkvmerge v6.2.0 ('Promised Land') built on Apr 28 2013 12:22:01
Библиотека кодирования : libebml v1.3.0 + libmatroska v1.4.0

Видео
Идентификатор : 1
Формат : AVC
Формат/Информация : Advanced Video Codec
Профиль формата : High@L4.1
Параметр CABAC формата : Да
Параметр ReFrames формата : 16 кадров
Идентификатор кодека : V_MPEG4/ISO/AVC
Продолжительность : 1 ч. 46 м.
Битрейт : 2250 Кбит/сек
Ширина : 720 пикселей
Высота : 544 пикселя
Соотношение сторон : 1,882
Режим частоты кадров : Постоянный
Частота кадров : 25,000 кадров/сек
Цветовое пространство : YUV
Субдискретизация насыщенности : 4:2:0
Битовая глубина : 8 бит
Тип развёртки : Прогрессивная
Бит/(Пиксели*Кадры) : 0.230
Размер потока : 1,64 Гбайт (83%)
Библиотека кодирования : x264 core 133 r2334 a3ac64b
Настройки программы : cabac=1 / ref=16 / deblock=1:0:0 / analyse=0x3:0x133 / me=umh / subme=10 / psy=1 / psy_rd=1.05:0.10 / mixed_ref=1 / me_range=32 / chroma_me=1 / trellis=2 / 8x8dct=1 / cqm=0 / deadzone=21,11 / fast_pskip=0 / chroma_qp_offset=-3 / threads=8 / lookahead_threads=2 / sliced_threads=0 / nr=0 / decimate=0 / interlaced=0 / bluray_compat=0 / constrained_intra=0 / bframes=10 / b_pyramid=2 / b_adapt=2 / b_bias=0 / direct=3 / weightb=1 / open_gop=0 / weightp=2 / keyint=250 / keyint_min=25 / scenecut=40 / intra_refresh=0 / rc=2pass / mbtree=0 / bitrate=2250 / ratetol=1.0 / qcomp=0.60 / qpmin=0 / qpmax=60 / qpstep=4 / cplxblur=20.0 / qblur=0.5 / ip_ratio=1.40 / pb_ratio=1.30 / aq=1:1.00
Default : Нет
Forced : Нет
Коэффициенты матрицы : BT.601

Аудио #1
Идентификатор : 2
Формат : AC-3
Формат/Информация : Audio Coding 3
Расширение режима : CM (complete main)
Параметр Endianness формата : Big
Идентификатор кодека : A_AC3
Продолжительность : 1 ч. 46 м.
Вид битрейта : Постоянный
Битрейт : 192 Кбит/сек
Каналы : 2 канала
Расположение каналов : Front: L R
Частота : 48,0 КГц
Битовая глубина : 16 бит
Метод сжатия : С потерями
Размер потока : 147 Мбайт (7%)
Язык : Italian
Default : Нет
Forced : Нет

Аудио #2
Идентификатор : 3
Формат : AC-3
Формат/Информация : Audio Coding 3
Расширение режима : CM (complete main)
Параметр Endianness формата : Big
Идентификатор кодека : A_AC3
Продолжительность : 1 ч. 46 м.
Вид битрейта : Постоянный
Битрейт : 192 Кбит/сек
Каналы : 2 канала
Расположение каналов : Front: L R
Частота : 48,0 КГц
Битовая глубина : 16 бит
Метод сжатия : С потерями
Размер потока : 147 Мбайт (7%)
Язык : Russian
Default : Да
Forced : Нет

Текст #1
Идентификатор : 4
Формат : VobSub
Режим смешивания : zlib
Идентификатор кодека : S_VOBSUB
Идентификатор кодека/Информация : The same subtitle format used on DVDs
Язык : Russian
Default : Нет
Forced : Нет

Текст #2
Идентификатор : 5
Формат : VobSub
Режим смешивания : zlib
Идентификатор кодека : S_VOBSUB
Идентификатор кодека/Информация : The same subtitle format used on DVDs
Язык : English
Default : Нет
Forced : Нет

Текст #3
Идентификатор : 6
Формат : VobSub
Режим смешивания : zlib
Идентификатор кодека : S_VOBSUB
Идентификатор кодека/Информация : The same subtitle format used on DVDs
Язык : French
Default : Нет
Forced : Нет

Меню
00:00:00.000 : en:Chapter 01
00:02:03.400 : en:Chapter 02
00:08:28.480 : en:Chapter 03
00:22:16.640 : en:Chapter 04
00:31:26.160 : en:Chapter 05
00:41:48.200 : en:Chapter 06
00:52:53.320 : en:Chapter 07
00:59:26.320 : en:Chapter 08
01:16:59.960 : en:Chapter 09
01:27:23.760 : en:Chapter 10
01:32:23.120 : en:Chapter 11
01:42:36.840 : en:Chapter 12
frame I:780 Avg QP:15.11 size: 65418
frame P:38697 Avg QP:17.74 size: 24299
frame B:120955 Avg QP:19.54 size: 6727
Релиз от: Temperest



Скачать Изобретение.Мореля.L'invenzione.di.Morel.(Эмидио.Греко).[1974.фантастика.DVDRip-AVC].[VO]+[Sub]x3.torrent без регистрации
Золото ЗОЛОТАЯ РАЗДАЧА! СКАЧАННОЕ НЕ ЗАСЧИТЫВАЕТСЯ! Золото
Дата: Зарегистрирован   [ Тип: внутренний ] Как тут cкачать?
MAGNET ссылка
MAGNET ссылка


Скачать .torrent

21 KB

Статус: проверено DHT
Скачан: торрент - 40 раз, раздача полностью - 5 раз
Размер: 1,97 GB
Оценка:  5 (Голосов: 1)
Поблагодарили: 3
Поделиться ссылкой на эту раздачу с друзьями:
В контактеFacebookОдноклассникиTwitterLivejournalМой МирLiveinternet
 

 
Показать сообщения:    


Вы не можете начинать темы
Вы не можете отвечать на сообщения
Вы не можете редактировать свои сообщения
Вы не можете удалять свои сообщения
Вы не можете голосовать в опросах
Вы не можете прикреплять файлы к сообщениям
Вы можете скачивать файлы