Loading...
Error

Скачать Одиночка / Le Solitaire (Жак Дере) [1987, боевик, триллер, драма, криминал, BDRip] [Dub]+[MVO]+[DVO] торрент без регистрации

 
Статистика раздачи
Размер:  1,46 GB   |    Скачан:  52 раза
Сидов:  1  [  0 KB/s  ]  
 
Автор Сообщение

Marsianka

[] 

Информация о фильме
Название: Одиночка
Оригинальное название: Le solitaire
Год выхода: 1987
Жанр: боевик, триллер, драма, криминал
Режиссёр: Жак Дере
В ролях: Жан-Поль Бельмондо, Жан-Пьер Мало, Мишель Бон, Пьер Вернье, Франсуа Дюнойе, Франк Айя, Лоран Жандрон, Жан-Клод Де Горос, Ги Паннекин, Патриция Мальвуазен

О фильме: До каких границ может дойти служитель закона в борьбе с преступниками, которые границ не знают? Комиссара Стэна называли фашистом с куриными мозгами и стальными мускулами. Но он справедлив и надежен и не остановиться ни перед чем, чтобы отомстить за гибель своего напарника и друга...



Выпущено: Франция, Cerito Films, Sara Films
Продолжительность: 01:32:06
Перевод: Дублированный (Киностудия им. М. Горького), профессиональный многоголосый (Cinema Prestige), профессиональный двухголосый (НТВ+)
Оригинальная аудио-дорожка: Нет

Файл
Формат: AVI
Кодек: XviD
Качество: BDRip [Исходник: Blu-ray [Custom] 1080i AVC DD 2.0 от HDClub]
Видео: XviD, 720x384 (1.875), 1690 Кбит/с, 25 кадр/с, 0.244 bit/pixel
Аудио #1: Русский, Dolby AC3, 48000 Гц, 192 Кбит/с, 2 канала (Стерео) - DUB [Киностудия им. М. Горького]
Аудио #2: Русский, Dolby AC3, 48000 Гц, 192 Кбит/с, 2 канала (Стерео) - MVO [Cinema Prestige]
Аудио #3: Русский, Dolby AC3, 48000 Гц, 192 Кбит/с, 2 канала (Стерео) - DVO [НТВ+]
Субтитры: Нет
General
Complete name : Le.solitaire.1987.Triple.BDRip.avi
Format : AVI
Format/Info : Audio Video Interleave
File size : 1.46 GiB
Duration : 1h 32mn
Overall bit rate : 2 277 Kbps
Writing application : VirtualDubMod 1.5.10.3 | www.virtualdub-fr.org || (build 2550/release)
Writing library : VirtualDubMod build 2550/release
Copyright : rip by ivandubskoj

Video
ID : 0
Format : MPEG-4 Visual
Format profile : Advanced Simple@L5
Format settings, BVOP : 1
Format settings, QPel : No
Format settings, GMC : No warppoints
Format settings, Matrix : Custom
Codec ID : XVID
Codec ID/Hint : XviD
Duration : 1h 32mn
Bit rate : 1 690 Kbps
Width : 720 pixels
Height : 384 pixels
Display aspect ratio : 1.875
Frame rate : 25.000 fps
Color space : YUV
Chroma subsampling : 4:2:0
Bit depth : 8 bits
Scan type : Progressive
Compression mode : Lossy
Bits/(Pixel*Frame) : 0.244
Stream size : 1.09 GiB (74%)
Writing library : XviD 73

Audio #1
ID : 1
Format : AC-3
Format/Info : Audio Coding 3
Mode extension : CM (complete main)
Codec ID : 2000
Duration : 1h 32mn
Bit rate mode : Constant
Bit rate : 192 Kbps
Channel(s) : 2 channels
Channel positions : Front: L R
Sampling rate : 48.0 KHz
Bit depth : 16 bits
Compression mode : Lossy
Stream size : 126 MiB (8%)
Alignment : Split accross interleaves
Interleave, duration : 96 ms (2.40 video frames)
Interleave, preload duration : 500 ms
Title : Russian, DUB [Киностудия им. М. Горького]

Audio #2
ID : 2
Format : AC-3
Format/Info : Audio Coding 3
Mode extension : CM (complete main)
Codec ID : 2000
Duration : 1h 32mn
Bit rate mode : Constant
Bit rate : 192 Kbps
Channel(s) : 2 channels
Channel positions : Front: L R
Sampling rate : 48.0 KHz
Bit depth : 16 bits
Compression mode : Lossy
Stream size : 126 MiB (8%)
Alignment : Split accross interleaves
Interleave, duration : 96 ms (2.40 video frames)
Interleave, preload duration : 500 ms
Title : Russian, MVO [Cinema Prestige]

Audio #3
ID : 3
Format : AC-3
Format/Info : Audio Coding 3
Mode extension : CM (complete main)
Codec ID : 2000
Duration : 1h 32mn
Bit rate mode : Constant
Bit rate : 192 Kbps
Channel(s) : 2 channels
Channel positions : Front: L R
Sampling rate : 48.0 KHz
Bit depth : 16 bits
Compression mode : Lossy
Stream size : 126 MiB (8%)
Alignment : Split accross interleaves
Interleave, duration : 96 ms (2.40 video frames)
Interleave, preload duration : 500 ms
Title : Russian, DVO [НТВ+]
Автор рипа - ivandubskoj



Скачать Одиночка.Le.Solitaire.(Жак.Дере).[1987.боевик.триллер.драма.криминал.BDRip].[Dub]+[MVO]+[DVO].torrent без регистрации
Золото ЗОЛОТАЯ РАЗДАЧА! СКАЧАННОЕ НЕ ЗАСЧИТЫВАЕТСЯ! Золото
Дата: Зарегистрирован   [ Тип: внутренний ] Как тут cкачать?
MAGNET ссылка
MAGNET ссылка


Скачать .torrent

15 KB

Статус: проверено DHT
Скачан: торрент - 52 раз, раздача полностью - 12 раз
Размер: 1,46 GB
Оценка:  - (Голосов: 0)
Поблагодарили: 3
Поделиться ссылкой на эту раздачу с друзьями:
В контактеFacebookОдноклассникиTwitterLivejournalМой МирLiveinternet
 

 
Показать сообщения:    


Вы не можете начинать темы
Вы не можете отвечать на сообщения
Вы не можете редактировать свои сообщения
Вы не можете удалять свои сообщения
Вы не можете голосовать в опросах
Вы не можете прикреплять файлы к сообщениям
Вы можете скачивать файлы