Loading...
Error

Скачать Прощай, Бафана / Goodbye Bafana (Билле Аугуст) [2007, драма, биография, история, DVDRip-AVC] [MVO]+[Sub] торрент без регистрации

 
Статистика раздачи
Размер:  2,84 GB   |    Скачан:  45 раз
Сидов:  1  [  0 KB/s  ]  
 
Автор Сообщение

Marsianka

[] 

Информация о фильме
Название: Прощай, Бафана
Оригинальное название: Goodbye Bafana
Год выхода: 2007
Жанр: драма, биография, история
Режиссер: Билле Аугуст / Bille August
В ролях:
Джозеф Файнc, Деннис Хейсбёрт, Дайан Крюгер Шило Хендерсон,
Тайрон Кеог, Меган Смит, Джессика Мануэль

О фильме:
В основу ленты положена книга Джеймса Грегори и Боба Грэма, повествующая о белом южноафриканском расисте, в течение 20 лет охранявшем прославленного политзаключенного Нельсона Манделу, который в итоге коренным образом изменил его жизнь. Один из авторов книги Джеймс Грегори вырос на ферме в Транскее и с детства прекрасно говорил на африканском языке коса. Став тюремщиком, он пользовался этими знаниями, шпионя за Манделой и другими темнокожими заключенными, которые и не подозревали, что он понимает их речь.


Страна: Германия, Франция, Бельгия, ЮАР, Италия, Великобритания, Люксембург
Студия: Banana Films, Arsam International, Film Afrika Worldwide
Продолжительность: 01:53:08
Перевод: Профессиональный (многоголосый закадровый) R5 CP Digital

Файл
Кодек: h.264
Качество: DVDRip-AVC
Видео: 720x576 (16:9) @ 1024x576 (анаморф), 25.000 fps, AVC, ~2693 Kbps, 0.260 bits/pixel

1) Русский, 48.0 KHz, AC3, 6 ch, 448 Kbps
2) Английский, 48.0 KHz, AC3, 6 ch, 448 Kbps
Субтитры: Русские, VobSub
Исходник R5 DVD9 CP Digital
Общее
Уникальный идентификатор : 181945795549225276581124855778331177223 (0x88E17C4FA66019C5BC660EE0EF09B107)
Полное имя : D:FilmsProschai_Bafana.2007.DVDRip-AVC.mkv
Формат : Matroska
Версия формата : Version 4 / Version 2
Размер файла : 2,84 Гбайт
Продолжительность : 1 ч. 53 м.
Общий поток : 3593 Кбит/сек
Дата кодирования : UTC 2013-06-02 03:16:16
Программа кодирования : mkvmerge v6.2.0 ('Promised Land') built on Apr 28 2013 12:22:01
Библиотека кодирования : libebml v1.3.0 + libmatroska v1.4.0

Видео
Идентификатор : 1
Формат : AVC
Формат/Информация : Advanced Video Codec
Профиль формата : High@L4.1
Параметр CABAC формата : Да
Параметр ReFrames формата : 16 кадров
Идентификатор кодека : V_MPEG4/ISO/AVC
Продолжительность : 1 ч. 53 м.
Битрейт : 2693 Кбит/сек
Ширина : 720 пикселей
Высота : 576 пикселей
Соотношение сторон : 16:9
Режим частоты кадров : Постоянный
Частота кадров : 25,000 кадров/сек
Стандарт вещания : PAL
Цветовое пространство : YUV
Субдискретизация насыщенности : 4:2:0
Битовая глубина : 8 бит
Тип развёртки : Прогрессивная
Бит/(Пиксели*Кадры) : 0.260
Размер потока : 2,07 Гбайт (73%)
Библиотека кодирования : x264 core 130 r2273 b3065e6
Настройки программы : cabac=1 / ref=16 / deblock=1:0:0 / analyse=0x3:0x133 / me=umh / subme=10 / psy=1 / psy_rd=1.05:0.10 / mixed_ref=1 / me_range=32 / chroma_me=1 / trellis=2 / 8x8dct=1 / cqm=0 / deadzone=21,11 / fast_pskip=0 / chroma_qp_offset=-3 / threads=8 / lookahead_threads=1 / sliced_threads=0 / nr=0 / decimate=0 / interlaced=0 / bluray_compat=0 / constrained_intra=0 / bframes=8 / b_pyramid=2 / b_adapt=2 / b_bias=0 / direct=3 / weightb=1 / open_gop=0 / weightp=2 / keyint=250 / keyint_min=25 / scenecut=40 / intra_refresh=0 / rc=2pass / mbtree=0 / bitrate=2693 / ratetol=1.0 / qcomp=0.60 / qpmin=0 / qpmax=69 / qpstep=4 / cplxblur=20.0 / qblur=0.5 / ip_ratio=1.40 / pb_ratio=1.30 / aq=1:1.00
Default : Нет
Forced : Нет
Коэффициенты матрицы : BT.601

Аудио #1
Идентификатор : 2
Формат : AC-3
Формат/Информация : Audio Coding 3
Расширение режима : CM (complete main)
Параметр Endianness формата : Big
Идентификатор кодека : A_AC3
Продолжительность : 1 ч. 53 м.
Вид битрейта : Постоянный
Битрейт : 448 Кбит/сек
Каналы : 6 каналов
Расположение каналов : Front: L C R, Side: L R, LFE
Частота : 48,0 КГц
Битовая глубина : 16 бит
Метод сжатия : С потерями
Размер потока : 363 Мбайт (12%)
Язык : Russian
Default : Да
Forced : Нет

Аудио #2
Идентификатор : 3
Формат : AC-3
Формат/Информация : Audio Coding 3
Расширение режима : CM (complete main)
Параметр Endianness формата : Big
Идентификатор кодека : A_AC3
Продолжительность : 1 ч. 53 м.
Вид битрейта : Постоянный
Битрейт : 448 Кбит/сек
Каналы : 6 каналов
Расположение каналов : Front: L C R, Side: L R, LFE
Частота : 48,0 КГц
Битовая глубина : 16 бит
Метод сжатия : С потерями
Размер потока : 363 Мбайт (12%)
Язык : English
Default : Нет
Forced : Нет

Текст
Идентификатор : 4
Формат : VobSub
Режим смешивания : zlib
Идентификатор кодека : S_VOBSUB
Идентификатор кодека/Информация : The same subtitle format used on DVDs
Язык : Russian
Default : Нет
Forced : Нет

Меню
00:00:00.000 : en:Chapter 01
00:09:19.200 : en:Chapter 02
00:18:26.400 : en:Chapter 03
00:27:36.000 : en:Chapter 04
00:40:08.400 : en:Chapter 05
00:52:28.200 : en:Chapter 06
00:59:45.000 : en:Chapter 07
01:05:44.400 : en:Chapter 08
01:14:08.400 : en:Chapter 09
01:28:39.000 : en:Chapter 10
01:33:47.400 : en:Chapter 11
01:43:11.400 : en:Chapter 12

frame I:1583 Avg QP:15.60 size: 60336
frame P:36624 Avg QP:17.70 size: 28978
frame B:131503 Avg QP:20.00 size: 8580
Релиз от: Temperest



Скачать Прощай.Бафана.Goodbye.Bafana.(Билле.Аугуст).[2007.драма.биография.история.DVDRip-AVC].[MVO]+[Sub].torrent без регистрации
Золото ЗОЛОТАЯ РАЗДАЧА! СКАЧАННОЕ НЕ ЗАСЧИТЫВАЕТСЯ! Золото
Дата: Зарегистрирован   [ Тип: внутренний ] Как тут cкачать?
MAGNET ссылка
MAGNET ссылка


Скачать .torrent

15 KB

Статус: проверено DHT
Скачан: торрент - 45 раз, раздача полностью - 1 раз
Размер: 2,84 GB
Оценка:  - (Голосов: 0)
Поблагодарили: 1
Поделиться ссылкой на эту раздачу с друзьями:
В контактеFacebookОдноклассникиTwitterLivejournalМой МирLiveinternet
 

 
Показать сообщения:    


Вы не можете начинать темы
Вы не можете отвечать на сообщения
Вы не можете редактировать свои сообщения
Вы не можете удалять свои сообщения
Вы не можете голосовать в опросах
Вы не можете прикреплять файлы к сообщениям
Вы можете скачивать файлы