Loading...
Error

Скачать Олух / Баскетс / Baskets (Сезон 01, серии 01-09 из 10) (Джонатан Крисел) [2016, комедия, WEB-DL] [1080p] [MVO] (NewStudio) + [Orig] торрент без регистрации

 
Статистика раздачи
Размер:  8,46 GB   |    Скачан:  875 раз
Сидов:  1  [  0 KB/s  ]  
 
Автор Сообщение

leon030982

[] 

Олух / Баскетс / Baskets

Год выхода: 2016
Страна: США
Жанр: комедия
Продолжительность: 1x~ 00:27:51
Перевод: Профессиональный (многоголосный, закадровый) NewStudio
Субтитры: нет

Режиссер: Джонатан Крисел

В ролях: Зак Галифианакис, Малия Пайлс, Том Проктер, Гарри Клеммонс, Джейсон Клеммонс, Крис МакЛафлин, Лиана Мендоса, Брент Уолкер, Sabina Sciubba, Майлз Андерсон и др.

Описание: Новый проект Зака Галифианакиса и Луи Си Кея.
История Чипа Баскетса - чудаковатого калифорнийца, мечтающего стать профессиональным клоуном. Поступление в престижную парижскую школу, где учат этому ремеслу, он проваливает и устраивается работать клоуном на родео.



Перевод: Ирина Гвозденко

Качество: WEB-DL 1080p
Формат: MKV
Видео кодек: x264
Аудио кодек: AC3
Видео: MPEG-4 AVC, ~ 5038 Кбит/с, 1920x1080, 23.976 fps
Аудио #1: 48 KHz, AC3, 6 channels, 384 Kbps |NewStudio|
Аудио #2: 48 KHz, AC3, 6 channels, 384 Kbps [Eng]

Добавлена 9-я серия!

Код:

General
Unique ID                                : 224134962275025728422612463831465238664 (0xA89ED2D3B61588099D65E3958F1AA088)
Complete name                            : E:\INTERNET\Baskets.s01 WEBDL.1080p.NewStudio.TV\Baskets.s01e01.WEBDL.1080p.NewStudio.TV.mkv
Format                                   : Matroska
Format version                           : Version 4 / Version 2
File size                                : 1.15 GiB
Duration                                 : 27mn 51s
Overall bit rate                         : 5 924 Kbps
Encoded date                             : UTC 2016-01-22 18:20:18
Writing application                      : mkvmerge v8.2.0 ('World of Adventure') 64bit
Writing library                          : libebml v1.3.1 + libmatroska v1.4.2

Video
ID                                       : 1
Format                                   : AVC
Format/Info                              : Advanced Video Codec
Format profile                           : High@L4
Format settings, CABAC                   : Yes
Format settings, ReFrames                : 4 frames
Codec ID                                 : V_MPEG4/ISO/AVC
Duration                                 : 27mn 51s
Bit rate                                 : 5 038 Kbps
Width                                    : 1 920 pixels
Height                                   : 1 080 pixels
Display aspect ratio                     : 16:9
Frame rate mode                          : Constant
Frame rate                               : 23.976 fps
Color space                              : YUV
Chroma subsampling                       : 4:2:0
Bit depth                                : 8 bits
Scan type                                : Progressive
Bits/(Pixel*Frame)                       : 0.101
Stream size                              : 1 004 MiB (85%)
Language                                 : English
Default                                  : Yes
Forced                                   : No
Color range                              : Limited
Color primaries                          : BT.709
Transfer characteristics                 : BT.709
Matrix coefficients                      : BT.709

Audio #1
ID                                       : 2
Format                                   : AC-3
Format/Info                              : Audio Coding 3
Mode extension                           : CM (complete main)
Format settings, Endianness              : Big
Codec ID                                 : A_AC3
Duration                                 : 27mn 51s
Bit rate mode                            : Constant
Bit rate                                 : 384 Kbps
Channel(s)                               : 6 channels
Channel positions                        : Front: L C R, Side: L R, LFE
Sampling rate                            : 48.0 KHz
Compression mode                         : Lossy
Stream size                              : 76.5 MiB (6%)
Language                                 : Russian
Default                                  : Yes
Forced                                   : Yes

Audio #2
ID                                       : 3
Format                                   : AC-3
Format/Info                              : Audio Coding 3
Mode extension                           : CM (complete main)
Format settings, Endianness              : Big
Codec ID                                 : A_AC3
Duration                                 : 27mn 51s
Bit rate mode                            : Constant
Bit rate                                 : 384 Kbps
Channel(s)                               : 6 channels
Channel positions                        : Front: L C R, Side: L R, LFE
Sampling rate                            : 48.0 KHz
Compression mode                         : Lossy
Stream size                              : 76.5 MiB (6%)
Language                                 : English
Default                                  : No
Forced                                   : No
Внимание! Раздача ведётся путём добавления новых серий; при каждом добавлении создаётся новый торрент. Чтобы начать докачку новой серии, пользователям необходимо сделать следующее:
(1) остановить скачивание,
(2) удалить старый торрент у себя из клиента (старые серии удалять не надо),
(3) скачать новый торрент и запустить его у себя в клиенте вместо старого, при этом указать клиенту путь в старую папку куда и должно происходить скачивание новых серий.
Ваш клиент при этом должен произвести хеширование (проверку) старой папки (если не производит сам - помогите ему сделать это), и будет докачивать только те серии которых у вас ещё нет. Старые серии при этом не удаляются, а продолжают раздаваться!
Eсли вы уже удалили старые серии, то предотвратить повторную закачку старых серий можно, отжав галочку в соответствующих местах при запуске нового торрента. По возможности, желательно не удалять старые серии как можно дольше чтобы релизёр не столько продолжал раздавать старые серии, а смог сконцентрироваться на новых.




Скачать Олух.Баскетс.Baskets.(Сезон.01.серии.01-09.из.10).(Джонатан.Крисел).[2016.комедия.WEB-DL].[1080p].[MVO].(NewStudio).+.[Orig].torrent без регистрации
Золото ЗОЛОТАЯ РАЗДАЧА! СКАЧАННОЕ НЕ ЗАСЧИТЫВАЕТСЯ! Золото
Дата: Зарегистрирован   [ Тип: внутренний ] Как тут cкачать?
MAGNET ссылка
MAGNET ссылка


Скачать .torrent

22 KB

Статус: проверено DHT
Скачан: торрент - 875 раз, раздача полностью - 1 раз
Размер: 8,46 GB
Оценка:  5 (Голосов: 2)
Поблагодарили: 1
Поделиться ссылкой на эту раздачу с друзьями:
В контактеFacebookОдноклассникиTwitterLivejournalМой МирLiveinternet
 

 

leon030982

[] 

Код:

2-я серия
ag
 

leon030982

[] 

Код:

+3-4-я серия
 
Показать сообщения:    


Вы не можете начинать темы
Вы не можете отвечать на сообщения
Вы не можете редактировать свои сообщения
Вы не можете удалять свои сообщения
Вы не можете голосовать в опросах
Вы не можете прикреплять файлы к сообщениям
Вы можете скачивать файлы