Loading...
Error

/ Nick of Time ( / John Badham) [1995, , , , HDTVRip] [DVO] ( ) + [Orig]

 
1,4 GB   |    :  48
1  [  0 KB/s  ]  
 

leon030982

[] 

/ Nick of Time
: 1995
:
: Paramount Pictures
: , ,
: 01:25:14
: ( )
|VHS|
C:
:
: / John Badham
: , , . , , , , , , , .. .


, , , . , . , , . : . . . !


: HDTVRip
: AVI
: XVID
: AC3
: XVID, 720x400 (16:9), 25.000 fps, ~1671 kbps, 0.232 bit/pixel
#1:
| |: AC3, 48 kHz, 2 ch, 224 kbps
#2: ||: AC3, 48 kHz, 6 ch, 448 kbps

:

Fikaloid VHS- v.serij2013 .

:

General
Complete name : E:\Video\SD\Nick Of Time (1995) (HDTVRip).avi
Format : AVI
Format/Info : Audio Video Interleave
File size : 1.40 GiB
Duration : 1h 25mn
Overall bit rate : 2 357 Kbps
Movie name : Nick of Time 1995
Director : by_TakedaSun
Writing application : VirtualDubMod 1.5.10.2 (build 2540/release)
Writing library : VirtualDubMod build 2540/release
Video
ID : 0
Format : MPEG-4 Visual
Format profile : Advanced Simple@L5
Format settings, BVOP : 2
Format settings, QPel : No
Format settings, GMC : No warppoints
Format settings, Matrix : Default (MPEG)
Codec ID : XVID
Codec ID/Hint : XviD
Duration : 1h 25mn
Bit rate : 1 671 Kbps
Width : 720 pixels
Height : 400 pixels
Display aspect ratio : 16:9
Frame rate : 25.000 fps
Color space : YUV
Chroma subsampling : 4:2:0
Bit depth : 8 bits
Scan type : Progressive
Compression mode : Lossy
Bits/(Pixel*Frame) : 0.232
Stream size : 1 018 MiB (71%)
Writing library : XviD 1.2.1 (UTC 2008-12-04)
Audio #1
ID : 1
Format : AC-3
Format/Info : Audio Coding 3
Mode extension : CM (complete main)
Format settings, Endianness : Big
Codec ID : 2000
Duration : 1h 25mn
Bit rate mode : Constant
Bit rate : 224 Kbps
Channel(s) : 2 channels
Channel positions : Front: L R
Sampling rate : 48.0 KHz
Bit depth : 16 bits
Compression mode : Lossy
Stream size : 137 MiB (10%)
Alignment : Split accross interleaves
Interleave, duration : 40 ms (1.00 video frame)
Interleave, preload duration : 500 ms
Audio #2
ID : 2
Format : AC-3
Format/Info : Audio Coding 3
Mode extension : CM (complete main)
Format settings, Endianness : Big
Codec ID : 2000
Duration : 1h 25mn
Bit rate mode : Constant
Bit rate : 448 Kbps
Channel(s) : 6 channels
Channel positions : Front: L C R, Side: L R, LFE
Sampling rate : 48.0 KHz
Bit depth : 16 bits
Compression mode : Lossy
Stream size : 273 MiB (19%)
Alignment : Split accross interleaves
Interleave, duration : 40 ms (1.00 video frame)
Interleave, preload duration : 500 ms




...Nick.of.Time.(..John.Badham).[1995....HDTVRip].[DVO].(..).+.[Orig].torrent
  ! ! 
:   [ : ] c?
MAGNET
MAGNET


.torrent

15 KB

: DHT
: - 48 , - 1
: 1,4 GB
5 (: 2)
: 2
:
 FacebookTwitterLivejournal Liveinternet
 

 
: