Loading...
Error

Скачать Достаточно взрослые / Old Enough (Мариса Сильвер / Marisa Silver) [1984, драма, DVDRip-AVC] [MVO] (Варус Видео) торрент без регистрации

 
Статистика раздачи
Размер:  1,37 GB   |    Скачан:  38 раз
Сидов:  1  [  0 KB/s  ]  
 
Автор Сообщение

leon030982

[] 

Достаточно взрослые / Old Enough


Год выпуска: 1984
Страна: США
Жанр: драма
Продолжительность: 01:31:40
Перевод: Профессиональный (многоголосый закадровый) [Варус Видео]
Cубтитры: нет
Режиссер: Мариса Сильвер / Marisa Silver

В ролях: Дэнни Айелло, Алисса Милано, Роксанна Харт, Сара Бойд, Рейнбоу Харвест, Нилл Бэрри, Сьюзэн Кингсли, Фрэн Брилл, Джерри Бэммен, Энн Питониак


Двенадцатилетняя Лонни не знает, что представляет из себя мир за пределами её родительского дома в престижном районе Нью-Йорка. До тех пор пока она не встречается с Карен, 14-ти летней девочкой с улицы. Она знакомит её с захватывающей дух стороной городской жизни. Старший брат Карен, Джонни завораживает ступившую на путь приключений Лонни. И когда лето приближается к завершению, появление взрослой соблазнительницы приводит троих подростков к ссоре, которая грозит разрушить их хрупкую дружбу.



Качество видео: DVDRip-AVC (исходник DVD9 NTSC Zone 0)
Формат видео: MKV
Видео: 720x400, 23.976 fps, x264, High Profile 3.1 ~1944 kbps avg
Аудио: 48 kHz, AC3 Dolby Digital, 1/0 (C) ch, ~192.00 kbps avg

Цитата:

За раритетную звуковую дорожку огромное спасибо budulay8743, синхронизация -- agaraghh .

Релиз от -- agaraghh
General
Unique ID : 208871671106733331659809490877079349022 (0x9D233878B562358F8FB5559A7D87E71E)
Complete name : F:\Old Enough 1984\Old.Enough.1984.DVDRip.MVO.mkv
Format : Matroska
Format version : Version 4 / Version 2
File size : 1.37 GiB
Duration : 1h 31mn
Overall bit rate : 2 137 Kbps
Encoded date : UTC 2016-01-07 18:32:11
Writing application : mkvmerge v7.4.0 ('Circles') 64bit built on Dec 12 2014 12:19:56
Writing library : libebml v1.3.0 + libmatroska v1.4.1
DURATION : 01:31:41.056000000
NUMBER_OF_FRAMES : 171908
NUMBER_OF_BYTES : 132025344
_STATISTICS_WRITING_APP : mkvmerge v7.4.0 ('Circles') 64bit built on Dec 12 2014 12:19:56
_STATISTICS_WRITING_DATE_UTC : 2016-01-07 18:32:11
_STATISTICS_TAGS : BPS DURATION NUMBER_OF_FRAMES NUMBER_OF_BYTES
Video
ID : 1
Format : AVC
Format/Info : Advanced Video Codec
Format profile : High@L3.1
Format settings, CABAC : Yes
Format settings, ReFrames : 10 frames
Codec ID : V_MPEG4/ISO/AVC
Duration : 1h 31mn
Bit rate : 1 944 Kbps
Width : 720 pixels
Height : 400 pixels
Display aspect ratio : 16:9
Frame rate mode : Constant
Frame rate : 23.976 fps
Color space : YUV
Chroma subsampling : 4:2:0
Bit depth : 8 bits
Scan type : Progressive
Bits/(Pixel*Frame) : 0.282
Stream size : 1.22 GiB (89%)
Writing library : x264 core 148 r2638 7599210
Encoding settings : cabac=1 / ref=10 / deblock=1:-2:-1 / analyse=0x3:0x133 / me=umh / subme=10 / psy=0 / mixed_ref=1 / me_range=32 / chroma_me=1 / trellis=2 / 8x8dct=1 / cqm=0 / deadzone=21,11 / fast_pskip=0 / chroma_qp_offset=0 / threads=3 / lookahead_threads=1 / sliced_threads=0 / nr=0 / decimate=0 / interlaced=0 / bluray_compat=0 / constrained_intra=0 / bframes=8 / b_pyramid=2 / b_adapt=2 / b_bias=0 / direct=3 / weightb=1 / open_gop=0 / weightp=2 / keyint=240 / keyint_min=23 / scenecut=40 / intra_refresh=0 / rc_lookahead=60 / rc=2pass / mbtree=1 / bitrate=1944 / ratetol=1.0 / qcomp=0.60 / qpmin=10 / qpmax=69 / qpstep=4 / cplxblur=20.0 / qblur=0.5 / ip_ratio=1.40 / aq=1:1.00
Default : Yes
Forced : No
Audio
ID : 2
Format : AC-3
Format/Info : Audio Coding 3
Mode extension : CM (complete main)
Format settings, Endianness : Big
Codec ID : A_AC3
Duration : 1h 31mn
Bit rate mode : Constant
Bit rate : 192 Kbps
Channel(s) : 1 channel
Channel positions : Front: C
Sampling rate : 48.0 KHz
Bit depth : 16 bits
Compression mode : Lossy
Stream size : 126 MiB (9%)
Language : Russian
Default : Yes
Forced : No



Скачать Достаточно.взрослые.Old.Enough.(Мариса.Сильвер.Marisa.Silver).[1984.драма.DVDRip-AVC].[MVO].(Варус.Видео).torrent без регистрации
Золото ЗОЛОТАЯ РАЗДАЧА! СКАЧАННОЕ НЕ ЗАСЧИТЫВАЕТСЯ! Золото
Дата: Зарегистрирован   [ Тип: внутренний ] Как тут cкачать?
MAGNET ссылка
MAGNET ссылка


Скачать .torrent

14 KB

Статус: проверено DHT
Скачан: торрент - 38 раз, раздача полностью - 0 раз
Размер: 1,37 GB
Оценка:  - (Голосов: 0)
Поблагодарили: 2
Поделиться ссылкой на эту раздачу с друзьями:
В контактеFacebookОдноклассникиTwitterLivejournalМой МирLiveinternet
 

 
Показать сообщения:    


Вы не можете начинать темы
Вы не можете отвечать на сообщения
Вы не можете редактировать свои сообщения
Вы не можете удалять свои сообщения
Вы не можете голосовать в опросах
Вы не можете прикреплять файлы к сообщениям
Вы можете скачивать файлы