Loading...
Error

Скачать Пьяная история / Drunk History (сезон 01) (Дерек Уотерс) [2013, комедия, история, HDTVRip] [DVO (Hamsterstudio)] торрент без регистрации

 
Статистика раздачи
Размер:  1,57 GB   |    Скачан:  86 раз
Сидов:  13  [  0 KB/s  ]  
 
Автор Сообщение

МихаНЕзатор

[] 

Информация о фильме
Название: Пьяная история
Оригинальное название: Drunk History
Год выхода: 2013
Жанр: комедия, история
Режиссер: Дерек Уотерс

В ролях: Джек Блэк, Стивен Мёрчант, Дейв Грол, Майкл Сера, Вайнона Райдер, Люк Уилсон, Оуэн Уилсон, Джейсон Шварцман, Альфред Молина, Зои Дешанель, Уилл Ферелл, Кристен Уиг

О фильме: Это хулиганский проект вебсайта Funny or Die, который Comedy Central превратил в полноценное телешоу. Рассказчики в разной степени опьянения пытаются пересказать известные исторические события, а различные голливудские знаменитости этот бред инсценируют, открывая рты под авторские реплики.



Страна: США
Студия: Gary Sanchez Productions
Продолжительность: ~ 00:21:00 выпуск
Перевод: Любительский (двухголосый закадровый) [Hamsterstudio]

Файл
Кодек: XviD / MP3
Качество: HDTVRip
Видео: MPEG4, XviD, 720x400 (16:9), 23.976 fps, 1 168 Kbps (0.169 bit/pixel)
Звук: MP3, 48.0 KHz, 2 ch, 128 Kbps, CBR

АНОНСЫ ПОПУЛЯРНЫХ РАЗДАЧ


Торрент обновлён, добавлена 8-я серия!
General
Complete name : Drunk.History.s01e01.HDTVRip.HamsterStudio.Org.avi
Format : AVI
Format/Info : Audio Video Interleave
File size : 201 MiB
Duration : 21mn 29s
Overall bit rate : 1 305 Kbps
Writing application : VirtualDubModRus 1.5.10.2 (build 2540/release)
Writing library : VirtualDubMod build 2540/release

Video
ID : 0
Format : MPEG-4 Visual
Format profile : Advanced Simple@L5
Format settings, BVOP : 1
Format settings, QPel : No
Format settings, GMC : No warppoints
Format settings, Matrix : Default (H.263)
Codec ID : XVID
Codec ID/Hint : XviD
Duration : 21mn 29s
Bit rate : 1 168 Kbps
Width : 720 pixels
Height : 400 pixels
Display aspect ratio : 16:9
Frame rate : 23.976 fps
Color space : YUV
Chroma subsampling : 4:2:0
Bit depth : 8 bits
Scan type : Progressive
Compression mode : Lossy
Bits/(Pixel*Frame) : 0.169
Stream size : 180 MiB (89%)
Writing library : XviD 1.2.1 (UTC 2008-12-04)

Audio
ID : 1
Format : MPEG Audio
Format version : Version 1
Format profile : Layer 3
Mode : Joint stereo
Mode extension : MS Stereo
Codec ID : 55
Codec ID/Hint : MP3
Duration : 21mn 29s
Bit rate mode : Constant
Bit rate : 128 Kbps
Channel(s) : 2 channels
Sampling rate : 48.0 KHz
Compression mode : Lossy
Stream size : 19.7 MiB (10%)
Alignment : Aligned on interleaves
Interleave, duration : 42 ms (1.00 video frame)
Interleave, preload duration : 504 ms



Скачать Пьяная.история.Drunk.History.(сезон.01).(Дерек.Уотерс).[2013.комедия.история.HDTVRip].[DVO.(Hamsterstudio)].torrent без регистрации
Золото ЗОЛОТАЯ РАЗДАЧА! СКАЧАННОЕ НЕ ЗАСЧИТЫВАЕТСЯ! Золото
Дата: Зарегистрирован   [ Тип: внешний ] Как тут cкачать?
MAGNET ссылка
MAGNET ссылка


Скачать .torrent

36 KB

Статус: проверено DHT
Скачан: торрент - 86 раз, раздача полностью - 9 раз
Размер: 1,57 GB
Оценка:  5 (Голосов: 1)
Поблагодарили: 3
Поделиться ссылкой на эту раздачу с друзьями:
В контактеFacebookОдноклассникиTwitterLivejournalМой МирLiveinternet
 

 

Alecssis

[] 

Ну и хрень at
 
Показать сообщения:    


Вы не можете начинать темы
Вы не можете отвечать на сообщения
Вы не можете редактировать свои сообщения
Вы не можете удалять свои сообщения
Вы не можете голосовать в опросах
Вы не можете прикреплять файлы к сообщениям
Вы можете скачивать файлы