Loading...
Error

Скачать Секретные материалы / The X-Files (сезон 10) (Крис Картер и др.) [2016, фантастика, триллер, драма, детектив, WEB-DL] [720p] [MVO (OMSKBIRD records)]+[Eng]+[Sub Eng] торрент без регистрации

 
Статистика раздачи
Размер:  8,88 GB   |    Скачан:  866 раз
Сидов:  1  [  0 KB/s  ]  
 
Автор Сообщение

МихаНЕзатор

[] 

Информация о фильме
Название: Секретные материалы
Оригинальное название: The X-Files
Год выхода: 2016
Жанр: фантастика, триллер, драма, детектив
Режиссер: Крис Картер, Дэрин Морган, Глен Морган

В ролях: Дэвид Духовны, Джиллиан Андерсон, Митч Пиледжи, Уильям Б. Дэвис, Робби Амелл, Том Брэйдвуд, Дин Хэглунд, Брюс Харвуд, Джоэл МакХэйл, Лорен Эмброуз

О фильме: Специальные агенты ФБР, Фокс Малдер и Дана Скалли, снова работают вместе, чтобы расследовать странные и необъяснимые дела, связанные с паранормальными явлениями.



Страна: США
Продолжительность: ~ 00:43:00 серия
Перевод: Любительский (многоголосый закадровый) | OMSKBIRD records

Файл
Кодек: MPEG-4 AVC/H.264
Качество: WEB-DL 720p
Видео: AVC, 1280x718 (16:9), 23.976 fps, ~3900 kbps
Звук:
Аудио rus: AC3, 48 kHz, 6 ch, 384 kbps | OMSKBIRD records
Аудио eng: AC3, 48 kHz, 6 ch, 384 kbps | original
Субтитры: английские

АНОНСЫ ПОПУЛЯРНЫХ РАЗДАЧ


Торрент обновлён, добавлена 6-я серия!

01. Моя борьба (My Struggle)
02. Мутация основателя (Founder's Mutation)
03. Малдер и Скалли встречают двуликого монстра (Mulder & Scully Meet the Were-Monster)
04. Home Again (Снова дом)
05. Babylon (Вавилон)
06. My Struggle II ( Моя борьба II)

Релиз-группа:
Релиз: Grandfather61 (Skyns61)
Перевод: Екатерина Кузнецова
Роли озвучивали: Константин Погодаев, Алексей Гнеушев, Анна Тух, Павел Ярощик и Ольга Федорова
Звукорежиссер: Павел Квентов
Постер: Ксения Просветова
Работа со звуком: Grandfather61 (Skyns61)

Общее
Уникальный идентификатор : 232611248987737627542810582154055057709 (0xAEFF4C070E91A640947C7D644A51012D)
Полное имя : G:FilmsThe.X-Files.S10.720p.WEB-DL.OmskBirdThe.X-Files.S10E01.720p.WEB-DL.OmskBird.DD5.1.mkv
Формат : Matroska
Версия формата : Version 4 / Version 2
Размер файла : 1,46 Гбайт
Продолжительность : 44 м.
Общий поток : 4670 Кбит/сек
Дата кодирования : UTC 2016-01-26 05:41:26
Программа кодирования : mkvmerge v8.6.1 ('Flying') 64bit
Библиотека кодирования : libebml v1.3.3 + libmatroska v1.4.4

Видео
Идентификатор : 1
Формат : AVC
Формат/Информация : Advanced Video Codec
Профиль формата : High@L3.1
Параметр CABAC формата : Нет
Параметр ReFrames формата : 2 кадра
Идентификатор кодека : V_MPEG4/ISO/AVC
Продолжительность : 44 м.
Битрейт : 3900 Кбит/сек
Ширина : 1280 пикселей
Высота : 718 пикселей
Соотношение сторон : 16:9
Режим частоты кадров : Постоянный
Частота кадров : 23,976 (24000/1001) кадра/сек
Цветовое пространство : YUV
Субдискретизация насыщенности : 4:2:0
Битовая глубина : 8 бит
Тип развёртки : Прогрессивная
Бит/(Пиксели*Кадры) : 0.177
Размер потока : 1,22 Гбайт (84%)
Язык : English
Default : Да
Forced : Нет
colour_range : Limited
Основные цвета : BT.709
Характеристики трансфера : BT.709
Коэффициенты матрицы : BT.709

Аудио #1
Идентификатор : 2
Формат : AC-3
Формат/Информация : Audio Coding 3
Расширение режима : CM (complete main)
Параметр Endianness формата : Big
Идентификатор кодека : A_AC3
Продолжительность : 44 м.
Вид битрейта : Постоянный
Битрейт : 384 Кбит/сек
Каналы : 6 каналов
Расположение каналов : Front: L C R, Side: L R, LFE
Частота : 48,0 КГц
Частота кадров : 31,250 кадров/сек (1536 spf)
Метод сжатия : С потерями
Размер потока : 123 Мбайт (8%)
Заголовок : OmskBird 5.1
Язык : Russian
Default : Да
Forced : Нет

Аудио #2
Идентификатор : 3
Формат : AC-3
Формат/Информация : Audio Coding 3
Расширение режима : CM (complete main)
Параметр Endianness формата : Big
Идентификатор кодека : A_AC3
Продолжительность : 44 м.
Вид битрейта : Постоянный
Битрейт : 384 Кбит/сек
Каналы : 6 каналов
Расположение каналов : Front: L C R, Side: L R, LFE
Частота : 48,0 КГц
Частота кадров : 31,250 кадров/сек (1536 spf)
Метод сжатия : С потерями
Размер потока : 123 Мбайт (8%)
Заголовок : original 5.1
Язык : English
Default : Нет
Forced : Нет

Текст
Идентификатор : 4
Формат : UTF-8
Идентификатор кодека : S_TEXT/UTF8
Идентификатор кодека/Информация : UTF-8 Plain Text
Продолжительность : 42 м.
Битрейт : 110 бит/сек
Count of elements : 1015
Размер потока : 34,4 Кбайт (0%)
Заголовок : CC
Язык : English
Default : Нет
Forced : Нет

[color=brown]
Внимание! Раздача ведётся путём добавления новых серий; при каждом добавлении создётся новый торрент. Чтобы начать докачку новой серии, пользователям необходимо сделать следующее:
Остановить скачивание.
Удалить старый торрент у себя из клиента (старые серии удалять не надо).
Скачать новый торрент и запустить его у себя в клиенте вместо старого, при этом указать клиенту путь в старую папку куда и должно происходить скачивание новых серий.
Ваш клиент при этом должен произвести хеширование (проверку) старой папки (если не производит сам - помогите ему сделать это), и будет докачивать только те серии которых у вас ещё нет. Старые серии при этом не удаляются, а продолжают раздаваться!
Eсли вы уже удалили старые серии, то предотвратить повторную закачку старых серий можно, отжав галочку в соответсвующих местах при запуске нового торрента. По возможности, желательно не удалять старые серии как можно дольше чтобы релизёр не столько продолжал раздавать старые серии, а смог сконцентрироваться на новых.
Релиз от: skyns61



Скачать Секретные.материалы.The.X-Files.(сезон.10).(Крис.Картер.и.др.).[2016.фантастика.триллер.драма.детектив.WEB-DL].[720p].[MVO.(OMSKBIRD.records)]+[Eng]+[Sub.Eng].torrent без регистрации
Золото ЗОЛОТАЯ РАЗДАЧА! СКАЧАННОЕ НЕ ЗАСЧИТЫВАЕТСЯ! Золото
Дата: Зарегистрирован   [ Тип: внутренний ] Как тут cкачать?
MAGNET ссылка
MAGNET ссылка


Скачать .torrent

23 KB

Статус: проверено DHT
Скачан: торрент - 866 раз, раздача полностью - 6 раз
Размер: 8,88 GB
Оценка:  5 (Голосов: 1)
Поблагодарили: 1
Поделиться ссылкой на эту раздачу с друзьями:
В контактеFacebookОдноклассникиTwitterLivejournalМой МирLiveinternet
 

 
Показать сообщения:    


Вы не можете начинать темы
Вы не можете отвечать на сообщения
Вы не можете редактировать свои сообщения
Вы не можете удалять свои сообщения
Вы не можете голосовать в опросах
Вы не можете прикреплять файлы к сообщениям
Вы можете скачивать файлы