Loading...
Error

Скачать Секретные материалы / The X-Files (сезон 10) (Крис Картер и др.) [2016, фантастика, триллер, драма, детектив, WEB-DLRip-AVC] [Dub (TB3)]+[MVO (Кравец)] торрент без регистрации

 
Статистика раздачи
Размер:  3,28 GB   |    Скачан:  151 раз
Сидов:  1  [  0 KB/s  ]  
 
Автор Сообщение

МихаНЕзатор

[] 

Производство: США / 20th Century Fox Television, Ten Thirteen Productions
Жанр: фантастика, триллер, драма, детектив
Режиссер: Крис Картер, Дэрин Морган, Глен Морган

Актеры: Дэвид Духовны, Джиллиан Андерсон, Митч Пиледжи, Уильям Б. Дэвис, Робби Амелл, Том Брэйдвуд, Дин Хэглунд, Брюс Харвуд, Джоэл МакХэйл, Лорен Эмброуз и др.

Описание: Фокс Малдер и Дана Скалли снова вместе. На них выходит ведущий интернет-канала Тэд О'Малли, специализирующийся на расследовании государственных секретов. По словам О'Малли, он близок к раскрытию международного заговора, скрывающего от населения всю правду об инопланетянах. Малдер готов поверить О'Малли, Скалли как всегда скептична, но, как минимум, готова выслушать аргументы...



Дата премьеры в США: 24 января 2016
Дата премьеры в России: 26 января 2016

Релиз от: K.E.N (NNM-CLUB)
Продолжительность: ~00:45:00 серия
Качество видео: WEB-DLRip-AVC
Перевод: Дублированный (ТВ3), многоголосый закадровый, профессиональный (Кравец)
Субтитры: отсутствуют

Видео: AVC, 1024x576 (16:9), 23.976 fps, 1 460 Kbps (0.103 bit/pixel)
Аудио #1: AC-3, 48.0 KHz, 2 ch, 192 Kbps, CBR (Russian) - дубляж
Аудио #2: 1-2 серии: AAC LC, 48.0 KHz, 2 ch, 122 kbps (Russian), 3-6 серии: AC-3, 48.0 KHz, 2 ch, 192 Kbps, CBR (Russian) - многоголосый

АНОНСЫ ПОПУЛЯРНЫХ РАЗДАЧ


Торрент обновлён, добавлена 6-я серия!
Duration: 00:43:58 (2637.97)
Track #1: video
lang: und (1)
codc: V_MPEG4/ISO/AVC -> H264/AVC (22)
reso: 1024x576 (1024x576) -> 16:9
fram: 23.976 fps
rate: 1460 kbps (1460.27)
dura: 00:43:58 (2637.89)
size: 459.20 MB (481502915)
Track #2: audio (￐ヤ￑テ￐ᄆ￐ᄏ￑マ￐ᄊ ￐ᄁ￐メ-3)
lang: rus -> Russian (15)
codc: A_AC3 -> AC3 (2)
chan: 2 -> Stereo
samp: 48000 Hz
rate: 192 kbps (192.04)
dura: 00:43:57 (2637.28)
size: 60.38 MB (63309139)
Track #3: audio (￐ワ￐ᄑ￐ᄒ￐ᄈ￐ᄒ￐ᄈ￐ᄒ￐ᄏ￐ᄒ￑チ￑ヒ￐ᄍ - ￐レ￑タ￐ᄚ￐ᄇ￐ᄉ￑ニ)
lang: rus -> Russian (15)
codc: A_AAC -> AAC (9)
chan: 2 -> Stereo
samp: 48000 Hz
rate: 122 kbps (121.77)
dura: 00:43:58 (2637.91)
size: 38.29 MB (40151126)
Sizes: (check sanity)
disk: 558.65 MB (585790091)
atts: 155.16 KB (158887)
trac: 557.86 MB (584963180) [based on track size]
bitr: 557.88 MB (584977284) [based on bitrate]
tdif: 652.37 KB (668024) 0.11%
bdif: 638.59 KB (653919) 0.11%

Формат : Matroska
Версия формата : Version 2
Размер файла : 559 Мбайт
Продолжительность : 43 м.
Общий поток : 1776 Кбит/сек
Дата кодирования : UTC 2016-01-26 13:37:07
Программа кодирования : mkvmerge v5.3.0 ('I could have danced') built on Feb 9 2012 10:38:07
Библиотека кодирования : libebml v1.2.3 + libmatroska v1.3.0
Attachment : Yes

Видео
Идентификатор : 1
Формат : AVC
Формат/Информация : Advanced Video Codec
Профиль формата : High@L4.1
Параметр CABAC формата : Да
Параметр ReFrames формата : 9 кадров
Идентификатор кодека : V_MPEG4/ISO/AVC
Продолжительность : 43 м.
Номинальный битрейт : 1460 Кбит/сек
Ширина : 1024 пикселя
Высота : 576 пикселей
Соотношение сторон : 16:9
Режим частоты кадров : Постоянный
Частота кадров : 23,976 кадра/сек
Цветовое пространство : YUV
Субдискретизация насыщенности : 4:2:0
Битовая глубина : 8 бит
Тип развёртки : Прогрессивная
Бит/(Пиксели*Кадры) : 0.103
Библиотека кодирования : x264 core 146 r2538 121396c
Настройки программы : cabac=1 / ref=9 / deblock=1:-2:-2 / analyse=0x3:0x133 / me=umh / subme=10 / psy=1 / psy_rd=1.00:0.00 / mixed_ref=1 / me_range=32 / chroma_me=1 / trellis=2 / 8x8dct=1 / cqm=0 / deadzone=21,11 / fast_pskip=0 / chroma_qp_offset=-2 / threads=2 / lookahead_threads=2 / sliced_threads=0 / nr=0 / decimate=0 / interlaced=0 / bluray_compat=0 / constrained_intra=0 / bframes=6 / b_pyramid=2 / b_adapt=2 / b_bias=0 / direct=3 / weightb=1 / open_gop=0 / weightp=2 / keyint=240 / keyint_min=23 / scenecut=40 / intra_refresh=0 / rc=2pass / mbtree=0 / bitrate=1460 / ratetol=1.0 / qcomp=0.60 / qpmin=0 / qpmax=69 / qpstep=4 / cplxblur=20.0 / qblur=0.5 / ip_ratio=1.40 / pb_ratio=1.30 / aq=1:0.70
Default : Да
Forced : Нет

Аудио #1
Идентификатор : 2
Формат : AC-3
Формат/Информация : Audio Coding 3
Расширение режима : CM (complete main)
Параметр Endianness формата : Big
Идентификатор кодека : A_AC3
Продолжительность : 43 м.
Вид битрейта : Постоянный
Битрейт : 192 Кбит/сек
Каналы : 2 канала
Расположение каналов : Front: L R
Частота : 48,0 КГц
Битовая глубина : 16 бит
Метод сжатия : С потерями
Размер потока : 60,4 Мбайт (11%)
Заголовок : Дубляж ТВ-3
Язык : Russian
Default : Да
Forced : Нет

Аудио #2
Идентификатор : 3
Формат : AAC
Формат/Информация : Advanced Audio Codec
Профиль формата : LC
Идентификатор кодека : A_AAC
Продолжительность : 43 м.
Каналы : 2 канала
Расположение каналов : Front: L R
Частота : 48,0 КГц
Метод сжатия : С потерями
Заголовок : Многоголосый - Кравец
Язык : Russian
Default : Нет
Forced : Нет

Полное имя : D:ФИЛЬМЫФИЛЬМЫСекретные материалы.(2016) [S01].NNM-CLUBThe.X-Files.(2016) S01E03.mkv
Формат : Matroska
Версия формата : Version 2
Размер файла : 559 Мбайт
Продолжительность : 44 м.
Общий поток : 1767 Кбит/сек
Дата кодирования : UTC 2016-02-04 08:02:01
Программа кодирования : mkvmerge v5.3.0 ('I could have danced') built on Feb 9 2012 10:38:07
Библиотека кодирования : libebml v1.2.3 + libmatroska v1.3.0
Attachment : Yes

Видео
Идентификатор : 1
Формат : AVC
Формат/Информация : Advanced Video Codec
Профиль формата : High@L4.1
Параметр CABAC формата : Да
Параметр ReFrames формата : 9 кадров
Идентификатор кодека : V_MPEG4/ISO/AVC
Продолжительность : 44 м.
Битрейт : 1383 Кбит/сек
Ширина : 1024 пикселя
Высота : 576 пикселей
Соотношение сторон : 16:9
Режим частоты кадров : Постоянный
Частота кадров : 23,976 кадра/сек
Цветовое пространство : YUV
Субдискретизация насыщенности : 4:2:0
Битовая глубина : 8 бит
Тип развёртки : Прогрессивная
Бит/(Пиксели*Кадры) : 0.098
Размер потока : 427 Мбайт (76%)
Библиотека кодирования : x264 core 146 r2538 121396c
Настройки программы : cabac=1 / ref=9 / deblock=1:-2:-2 / analyse=0x3:0x133 / me=umh / subme=10 / psy=1 / psy_rd=1.00:0.00 / mixed_ref=1 / me_range=32 / chroma_me=1 / trellis=2 / 8x8dct=1 / cqm=0 / deadzone=21,11 / fast_pskip=0 / chroma_qp_offset=-2 / threads=2 / lookahead_threads=2 / sliced_threads=0 / nr=0 / decimate=0 / interlaced=0 / bluray_compat=0 / constrained_intra=0 / bframes=6 / b_pyramid=2 / b_adapt=2 / b_bias=0 / direct=3 / weightb=1 / open_gop=0 / weightp=2 / keyint=240 / keyint_min=23 / scenecut=40 / intra_refresh=0 / rc=2pass / mbtree=0 / bitrate=1383 / ratetol=1.0 / qcomp=0.60 / qpmin=0 / qpmax=69 / qpstep=4 / cplxblur=20.0 / qblur=0.5 / ip_ratio=1.40 / pb_ratio=1.30 / aq=1:1.00
Default : Да
Forced : Нет

Аудио #1
Идентификатор : 2
Формат : AC-3
Формат/Информация : Audio Coding 3
Расширение режима : CM (complete main)
Параметр Endianness формата : Big
Идентификатор кодека : A_AC3
Продолжительность : 44 м.
Вид битрейта : Постоянный
Битрейт : 192 Кбит/сек
Каналы : 2 канала
Расположение каналов : Front: L R
Частота : 48,0 КГц
Битовая глубина : 16 бит
Метод сжатия : С потерями
Размер потока : 60,8 Мбайт (11%)
Заголовок : Дубляж ТВ-3
Язык : Russian
Default : Да
Forced : Нет

Аудио #2
Идентификатор : 3
Формат : AC-3
Формат/Информация : Audio Coding 3
Расширение режима : CM (complete main)
Параметр Endianness формата : Big
Идентификатор кодека : A_AC3
Продолжительность : 44 м.
Вид битрейта : Постоянный
Битрейт : 192 Кбит/сек
Каналы : 2 канала
Расположение каналов : Front: L R
Частота : 48,0 КГц
Битовая глубина : 16 бит
Метод сжатия : С потерями
Размер потока : 60,8 Мбайт (11%)
Заголовок : Многоголосый - Кравец
Язык : Russian
Default : Нет
Forced : Нет

Внимание! Раздача ведётся путём добавления новых серий; при каждом добавлении создаётся новый торрент.
Чтобы начать докачку новой серии, пользователям необходимо сделать следующее:
(1) остановить скачивание;
(2) удалить старый торрент у себя из клиента (старые серии удалять не надо);
(3) скачать новый торрент и запустить его у себя в клиенте вместо старого, при этом указать клиенту путь в старую папку куда и должно происходить скачивание новых серий.Ваш клиент при этом должен произвести хеширование (проверку) старой папки (если не производит сам - помогите ему сделать это), и будет докачивать только те серии которых у вас ещё нет. Старые серии при этом не удаляются, а продолжают раздаваться!Eсли вы уже удалили старые серии, то предотвратить повторную закачку старых серий можно, отжав галочку в соответствующих местах при запуске нового торрента.



Скачать Секретные.материалы.The.X-Files.(сезон.10).(Крис.Картер.и.др.).[2016.фантастика.триллер.драма.детектив.WEB-DLRip-AVC].[Dub.(TB3)]+[MVO.(Кравец)].torrent без регистрации
Золото ЗОЛОТАЯ РАЗДАЧА! СКАЧАННОЕ НЕ ЗАСЧИТЫВАЕТСЯ! Золото
Дата: Зарегистрирован   [ Тип: внутренний ] Как тут cкачать?
MAGNET ссылка
MAGNET ссылка


Скачать .torrent

17 KB

Статус: проверено DHT
Скачан: торрент - 151 раз, раздача полностью - 10 раз
Размер: 3,28 GB
Оценка:  - (Голосов: 0)
Поблагодарили: 1
Поделиться ссылкой на эту раздачу с друзьями:
В контактеFacebookОдноклассникиTwitterLivejournalМой МирLiveinternet
 

 
Показать сообщения:    


Вы не можете начинать темы
Вы не можете отвечать на сообщения
Вы не можете редактировать свои сообщения
Вы не можете удалять свои сообщения
Вы не можете голосовать в опросах
Вы не можете прикреплять файлы к сообщениям
Вы можете скачивать файлы