Loading...
Error

Скачать Прослушка / The Wire (Сезон 04, серии 01-09 из 13) (Тим Ван Паттен, Джо Чаппелль, Эрнест Р. Дикерсон, Кларк Джонсон) [2006 г., триллер, драма, криминал, BDRip] [720p] [AVO] (Ю.Cербин) + [MVO] (Fox Crime) торрент без регистрации

 
Статистика раздачи
Размер:  43,03 GB   |    Скачан:  233 раза
Сидов:  1  [  0 KB/s  ]  
 
Автор Сообщение

leon030982

[] 

Прослушка
The Wire
4-ый Сезон



Год выпуска: 2006
Страна: США | HBO
Жанр: криминальная драма
Продолжительность: 1х ~01:00:00
Перевод #1: Авторский (одноголосый закадровый) [Ю. Сербин]
Перевод #2: Профессиональный (многоголосый закадровый) [FoxCrime]
Субтитры: Русские, английские

Режиссёр: Джо Чаппелль, Эрнест Р. Дикерсон, Кларк Джонсон

В ролях: Доминик Уэст, Идрис Эльба, Джон Доумен, Уенделл Пирс, Лэнс Реддик, Дирдри Лавджой, Соня Сон, Сет Гиллиам, Доменик Ломбардоззи, Кларк Питерс, Андре Ройо
Описание: Подразделение полицейских в Балтиморе пытается с помощью специальных средств и мероприятий по прослушиванию и скрытой видеосъемке довести до суда расследование преступлений организованных преступных групп, которые занимаются незаконным распространением наркотиков.



Релиз --

Качество: BDRip 720p
Формат: MKV
Видео кодек: AVC
Аудио кодек: AC3
Видео: 1280x720 at 23.976 fps, MPEG-4 AVC, ~10000 kbps avg
Аудио#1: Russian: 48 kHz, AC3, 3/2 (L,C,R,l,r) + LFE ch, ~640.00 kbps avg |Одноголосый закадровый, Ю.Сербин|
Аудио#2: Russian: 48 kHz, AC3, 2/0 (L,R) ch, ~320.00 kbps avg |Многоголосый закадровый, Fox Crime|
Аудио#3: English: 48 kHz, AC3, 3/2 (L,C,R,l,r) + LFE ch, ~640.00 kbps avg
Аудио#4: English: 48 kHz, AC3, 2/0 (L,R) ch, ~320.00 kbps avg |Комментарии|

Добавлена 8-9-я серии!

Цитата:

Перевод Ю.Сербина осуществлен в рамках сервиса "Озвучивание". Спонсоры: r0mka, Baraboshka, SckraT, alek_st79, ochkarik1, max26rus, mercyful_fate, KurynOFF, sybir, ray_hollis, lsniket, Pro_Rock_, tambov68, mrgofa, EgOr1997, tsr, Genychar, lagerbeck, RockSysteM, radiowhisper, o0O0o, Platov.

Код:

General
Unique ID                                : 239065059945298343040485853895198702888 (0xB3DA417985CA2A069C1AD9A3260EFD28)
Complete name                            : E:\INTERNET\The.Wire.S04.720p.WEB-DL.2xRus.Eng.HDCLUB\The.Wire.S04E01.720p.BluRay.2xRus.Eng.HDCLUB.mkv
Format                                   : Matroska
Format version                           : Version 4 / Version 2
File size                                : 4.87 GiB
Duration                                 : 58mn 26s
Overall bit rate                         : 11.9 Mbps
Movie name                               : The Wire S04E01 (2006) – Boys of Summer
Encoded date                             : UTC 2015-12-24 16:52:22
Writing application                      : mkvmerge v8.5.0 ('Vanishing Act') 32bit
Writing library                          : libebml v1.3.1 + libmatroska v1.4.2

Video
ID                                       : 1
Format                                   : AVC
Format/Info                              : Advanced Video Codec
Format profile                           : High@L4.1
Format settings, CABAC                   : Yes
Format settings, ReFrames                : 9 frames
Codec ID                                 : V_MPEG4/ISO/AVC
Duration                                 : 58mn 26s
Bit rate                                 : 10 000 Kbps
Width                                    : 1 280 pixels
Height                                   : 720 pixels
Display aspect ratio                     : 16:9
Frame rate mode                          : Constant
Frame rate                               : 23.976 fps
Color space                              : YUV
Chroma subsampling                       : 4:2:0
Bit depth                                : 8 bits
Scan type                                : Progressive
Bits/(Pixel*Frame)                       : 0.453
Stream size                              : 3.99 GiB (82%)
Title                                    : Release for HDCLUB
Writing library                          : x264 core 148 r2638kMod 7599210
Encoding settings                        : cabac=1 / ref=9 / deblock=1:-3:-3 / analyse=0x3:0x113 / me=umh / subme=11 / psy=1 / fade_compensate=0.00 / psy_rd=1.00:0.00 / mixed_ref=1 / me_range=32 / chroma_me=1 / trellis=2 / 8x8dct=1 / cqm=0 / deadzone=21,11 / fast_pskip=0 / chroma_qp_offset=-3 / threads=12 / lookahead_threads=2 / sliced_threads=0 / nr=0 / decimate=1 / interlaced=0 / bluray_compat=0 / constrained_intra=0 / fgo=0 / bframes=9 / b_pyramid=2 / b_adapt=2 / b_bias=0 / direct=1 / weightb=1 / open_gop=0 / weightp=2 / keyint=230 / keyint_min=23 / scenecut=40 / intra_refresh=0 / rc_lookahead=40 / rc=2pass / mbtree=0 / bitrate=10000 / ratetol=1.0 / qcomp=0.65 / qpmin=0 / qpmax=69 / qpstep=4 / cplxblur=20.0 / qblur=0.5 / vbv_maxrate=50000 / vbv_bufsize=62500 / nal_hrd=none / filler=0 / ip_ratio=1.40 / pb_ratio=1.30 / aq=3:0.85
Language                                 : English
Default                                  : Yes
Forced                                   : No

Audio #1
ID                                       : 2
Format                                   : AC-3
Format/Info                              : Audio Coding 3
Mode extension                           : CM (complete main)
Format settings, Endianness              : Big
Codec ID                                 : A_AC3
Duration                                 : 58mn 26s
Bit rate mode                            : Constant
Bit rate                                 : 640 Kbps
Channel(s)                               : 6 channels
Channel positions                        : Front: L C R, Side: L R, LFE
Sampling rate                            : 48.0 KHz
Compression mode                         : Lossy
Stream size                              : 268 MiB (5%)
Title                                    : DD 5.1 @ 640 kbps - Ю.Сербин
Language                                 : Russian
Default                                  : Yes
Forced                                   : No

Audio #2
ID                                       : 3
Format                                   : AC-3
Format/Info                              : Audio Coding 3
Mode extension                           : CM (complete main)
Format settings, Endianness              : Big
Codec ID                                 : A_AC3
Duration                                 : 58mn 26s
Bit rate mode                            : Constant
Bit rate                                 : 320 Kbps
Channel(s)                               : 2 channels
Channel positions                        : Front: L R
Sampling rate                            : 48.0 KHz
Compression mode                         : Lossy
Stream size                              : 134 MiB (3%)
Title                                    : DD 2.0 @ 320 kbps - Fox Crime
Language                                 : Russian
Default                                  : No
Forced                                   : No

Audio #3
ID                                       : 4
Format                                   : AC-3
Format/Info                              : Audio Coding 3
Mode extension                           : CM (complete main)
Format settings, Endianness              : Big
Codec ID                                 : A_AC3
Duration                                 : 58mn 26s
Bit rate mode                            : Constant
Bit rate                                 : 640 Kbps
Channel(s)                               : 6 channels
Channel positions                        : Front: L C R, Side: L R, LFE
Sampling rate                            : 48.0 KHz
Compression mode                         : Lossy
Stream size                              : 268 MiB (5%)
Title                                    : DD 5.1 @ 640 kbps
Language                                 : English
Default                                  : No
Forced                                   : No

Audio #4
ID                                       : 5
Format                                   : AC-3
Format/Info                              : Audio Coding 3
Mode extension                           : CM (complete main)
Format settings, Endianness              : Big
Codec ID                                 : A_AC3
Duration                                 : 58mn 26s
Bit rate mode                            : Constant
Bit rate                                 : 320 Kbps
Channel(s)                               : 2 channels
Channel positions                        : Front: L R
Sampling rate                            : 48.0 KHz
Compression mode                         : Lossy
Stream size                              : 134 MiB (3%)
Title                                    : DD 2.0 @ 320 kbps - Commentary
Language                                 : English
Default                                  : No
Forced                                   : No

Text #1
ID                                       : 6
Format                                   : UTF-8
Codec ID                                 : S_TEXT/UTF8
Codec ID/Info                            : UTF-8 Plain Text
Title                                    : Fox Crime
Language                                 : Russian
Default                                  : No
Forced                                   : No

Text #2
ID                                       : 7
Format                                   : UTF-8
Codec ID                                 : S_TEXT/UTF8
Codec ID/Info                            : UTF-8 Plain Text
Language                                 : English
Default                                  : No
Forced                                   : No

Menu #1
00:00:00.000                             : en:00:00:00.000
00:04:48.955                             : en:00:04:48.955
00:13:59.672                             : en:00:13:59.672
00:21:07.725                             : en:00:21:07.725
00:27:58.176                             : en:00:27:58.176
00:34:18.974                             : en:00:34:18.974
00:40:32.263                             : en:00:40:32.263
00:48:52.596                             : en:00:48:52.596
00:57:13.930                             : en:00:57:13.930

Menu #2
00:00:00.054                             : en:00:00:00.054



Скачать Прослушка.The.Wire.(Сезон.04.серии.01-09.из.13).(Тим.Ван.Паттен.Джо.Чаппелль.Эрнест.Р.Дикерсон.Кларк.Джонсон).[2006.г.триллер.драма.криминал.BDRip].[720p].[AVO].(Ю.Cербин).+.[MVO].(Fox.Crime).torrent без регистрации
Золото ЗОЛОТАЯ РАЗДАЧА! СКАЧАННОЕ НЕ ЗАСЧИТЫВАЕТСЯ! Золото
Дата: Зарегистрирован   [ Тип: внутренний ] Как тут cкачать?
MAGNET ссылка
MAGNET ссылка


Скачать .torrent

109 KB

Статус: проверено DHT
Скачан: торрент - 233 раз, раздача полностью - 1 раз
Размер: 43,03 GB
Оценка:  - (Голосов: 0)
Поблагодарили: 1
Поделиться ссылкой на эту раздачу с друзьями:
В контактеFacebookОдноклассникиTwitterLivejournalМой МирLiveinternet
 

 

leon030982

[] 

Цитата:

Добавлена 3-5-я серии!
 
Показать сообщения:    


Вы не можете начинать темы
Вы не можете отвечать на сообщения
Вы не можете редактировать свои сообщения
Вы не можете удалять свои сообщения
Вы не можете голосовать в опросах
Вы не можете прикреплять файлы к сообщениям
Вы можете скачивать файлы