Loading...
Error

Скачать Чёрные паруса / Black Sails (сезоны 01-04) (Нил Маршалл и др.) [2014-2017, драма, приключения, BDRip, HDTVRip] [720p] [MVO (AlexFilm)] торрент без регистрации

Статистика раздачи
Размер:  33,58 GB   |    Скачан:  62 раза
Сидов:  1  [  0 KB/s  ]  
 
 
 
Автор Сообщение

МихаНЕзатор

[] 

Информация о фильме
Название: Черные паруса
Оригинальное название: Black Sails
Год выпуска: 2014-2017
Страна: США, Film Afrika Worldwide CC, Platinum Dunes
Жанр: драма, приключения
Режиссер: Нил Маршалл, Сэм Миллер, Т.Дж. Скотт

В ролях: Тоби Стивенс (Captain Flint), Ханна Нью (Eleanor Guthrie), Люк Арнольд (John Silver), Джессика Паркер Кеннеди (Max), Шон Майкл (Richard Guthrie), Зэк МакГоун (Captain Charles Vane), Клара Пэджет (Anne Bonny), Хаким Кае-Казим (Mr. Scott), Том Хоппер (Billy Bones), Марк Райан (Gates), Тоби Шмитц (Rackham), Уинстон Чонг (Joji)

Описание: 1715 год. Золотой век - вершина пиратства в Карибском море. Остров бывшей британской колонии Нью-Провиденс является территорией беззакония, контролируемый самыми известными пиратскими капитанами в истории. Самым грозным из них является капитан Флинт.
Но британский флот возвращается в эти воды, угрожая уничтожить Флинта и его команду. Движимый глубокими, сложными, даже романтическими мотивами, Флинт становится союзником с грозной Элеонорой Гатри, дочерью местного вора в законе, который превращает добычу пиратов в прибыль. Вместе они создают план, охотясь за высшей наградой, выиграв которую, они остановят захват своего дома и обеспечат их выживание.
Им противостоит ряд соперников: конкурент капитана, завидующий власти Флинта, отец Элеоноры, чьи амбиции на острове приводят к конфликту с дочерью, и молодой моряк, Джон Сильвер, недавно принятый в экипаж Флинта, которому каким-то образом удается постоянно срывать планы своего капитана.



Перевод: Профессиональный (многоголосый) AlexFilm
Продолжительность: 38 х ~ 00:55:00

Качество: BDRip (720p), HDTVRip (720p)
Видео: MPEG-4 AVC, ~ 2000 Кбит/с, 1280x720
Аудио: Русский (AC3, 6 ch, 384 Кбит/с)

АНОНСЫ ПОПУЛЯРНЫХ РАЗДАЧ


Торрент обновлён, добавлен 4-й сезон!

Черные Паруса s01-04 2014-2017\3 сезон - Черные Паруса (Black Sails) 2016\10-Чёрные паруса.s03-2016.AlexFilm.720p.HDTVRip.(AVC)-Srg6161.mkv
General
Unique ID : 202501118556839819115798979880534286756 (0x98584BFB16980A869CD008F14CBA21A4)
Complete name : Черные Паруса s01-04 2014-2017\3 сезон - Черные Паруса (Black Sails) 2016\10-Чёрные паруса.s03-2016.AlexFilm.720p.HDTVRip.(AVC)-Srg6161.mkv
Format : Matroska
File size : 899 MiB
Duration : 49mn 53s
Overall bit rate : 2 519 Kbps
Movie name : Черные Паруса (Black Sails) s03.e10.2016 == Rip by Srg6161 ==
Encoded date : UTC 2017-01-31 22:17:42
Writing application : mkvmerge v7.4.0 ('Circles') 64bit built on Dec 12 2014 12:19:56
Writing library : libebml v1.3.0 + libmatroska v1.4.1
Video #1
ID : 1
Format : AVC
Format/Info : Advanced Video Codec
Format profile : High@L4.1
Format settings, CABAC : Yes
Format settings, ReFrames : 8 frames
Codec ID : V_MPEG4/ISO/AVC
Duration : 49mn 53s
Bit rate : 2 139 Kbps
Width : 1 280 pixels
Height : 720 pixels
Display aspect ratio : 16:9
Frame rate : 23.976 fps
Color space : YUV
Chroma subsampling : 4:2:0
Bit depth : 8 bits
Scan type : Progressive
Bits/(Pixel*Frame) : 0.097
Stream size : 744 MiB (83%)
Title : Черные Паруса (Black Sails) s03-2016 (10 seriya) - Rip by Srg6161
Writing library : x264 core 142 r2431 ac76440
Encoding settings : cabac=1 / ref=8 / deblock=1:-3:-3 / analyse=0x3:0x133 / me=umh / subme=11 / psy=1 / psy_rd=1.00:0.15 / mixed_ref=1 / me_range=32 / chroma_me=1 / trellis=2 / 8x8dct=1 / cqm=0 / deadzone=21,11 / fast_pskip=0 / chroma_qp_offset=-3 / threads=6 / lookahead_threads=1 / sliced_threads=0 / nr=0 / decimate=1 / interlaced=0 / bluray_compat=0 / constrained_intra=0 / bframes=6 / b_pyramid=2 / b_adapt=2 / b_bias=0 / direct=3 / weightb=1 / open_gop=0 / weightp=2 / keyint=240 / keyint_min=23 / scenecut=40 / intra_refresh=0 / rc_lookahead=40 / rc=2pass / mbtree=1 / bitrate=2139 / ratetol=1.0 / qcomp=0.60 / qpmin=0 / qpmax=69 / qpstep=4 / cplxblur=20.0 / qblur=0.5 / vbv_maxrate=50000 / vbv_bufsize=62500 / nal_hrd=none / filler=0 / ip_ratio=1.40 / aq=1:1.00
Language : English
Audio #2
ID : 2
Format : AC-3
Format/Info : Audio Coding 3
Mode extension : CM (complete main)
Codec ID : A_AC3
Duration : 49mn 53s
Bit rate mode : Constant
Bit rate : 384 Kbps
Channel(s) : 6 channels
Channel positions : Front: L C R, Side: L R, LFE
Sampling rate : 48.0 KHz
Bit depth : 16 bits
Compression mode : Lossy
Stream size : 137 MiB (15%)
Title : Профессиональный (многоголосый, закадровый) - AlexFilm
Language : Russian

Внимание! Раздача ведётся путём добавления новых серий; при каждом добавлении создётся новый торрент. Чтобы начать докачку новой серии, пользователям необходимо сделать следующее:
1. Остановить скачивание,
2. Удалить старый торрент у себя из клиента (старые серии удалять не надо),
3. Скачать новый торрент и запустить его у себя в клиенте вместо старого, при этом указать клиенту путь в старую папку куда и должно происходить скачивание новых серий.
Ваш клиент при этом должен произвести хеширование (проверку) старой папки (если не производит сам - помогите ему сделать это), и будет докачивать только те серии которых у вас ещё нет. Старые серии при этом не удаляются, а продолжают раздаваться!
Eсли вы уже удалили старые серии, то предотвратить повторную закачку старых серий можно, отжав галочку в соответсвующих местах при запуске нового торрента. По возможности, желательно не удалять старые серии как можно дольше чтобы релизёр не столько продолжал раздавать старые серии, а смог сконцентрироваться на новых.




Скачать Чёрные.паруса.Black.Sails.(сезоны.01-04).(Нил.Маршалл.и.др.).[2014-2017.драма.приключения.BDRip.HDTVRip].[720p].[MVO.(AlexFilm)].torrent без регистрации
Золото ЗОЛОТАЯ РАЗДАЧА! СКАЧАННОЕ НЕ ЗАСЧИТЫВАЕТСЯ! Золото
Дата: Зарегистрирован   [ Тип: внутренний ] Как тут cкачать?
MAGNET ссылка
MAGNET ссылка


Скачать .torrent

175 KB

Статус: проверено DHT
Скачан: торрент - 62 раз, раздача полностью - 4 раз
Размер: 33,58 GB
Оценка:  - (Голосов: 0)
Поблагодарили: 0
Поделиться ссылкой на эту раздачу с друзьями:
В контактеFacebookОдноклассникиTwitterLivejournalМой МирLiveinternet
 

 
Показать сообщения:    


Вы не можете начинать темы
Вы не можете отвечать на сообщения
Вы не можете редактировать свои сообщения
Вы не можете удалять свои сообщения
Вы не можете голосовать в опросах
Вы не можете прикреплять файлы к сообщениям
Вы можете скачивать файлы