Loading...
Error

Скачать Маленькое привидение / Little Ghost (Линда Шэйн) [1997, фэнтези, семейный, DVDRip] [AVO (Антон Алексеев)] торрент без регистрации

 
Статистика раздачи
Размер:  1,37 GB   |    Скачан:  42 раза
Сидов:  1  [  0 KB/s  ]  
 
Автор Сообщение

Marsianka

[] 

Информация о фильме
Название: Маленькое привидение
Оригинальное название: Little Ghost
Год выхода: 1997
Жанр: фэнтези, семейный
Режиссер: Линда Шэйн
В ролях: Кристина Уэйборн, Джим Фицпатрик, Салли Кёркленд, Лаура Брунэо, Люк Листмэйкер, Джеймисон Болтс, Тришали Харди, Руди Розенфельд, Дональд МакКензи

О фильме:
Двенадцатилетний Кевин встречает Софию, призрак одиннадцатилетней девочки, уже триста лет обитающей в замке, который мама Кевина хочет превратить в оздоровительный санаторий. София хочет стать другом Кевина, но не желает, чтобы замок превращался в курортный отель. Когда Кевин узнаёт, что парень его мамы обманщик, желающий использовать её для достижения своих корыстных планов, то заключает с Софи сделку. Он поможет ей вернуть замок, а взамен она проучит кованого друга матери и поможет избавиться от него.



Производство: Румыния, США / Castel Film Romania, Full Moon Entertainment, Kushner-Locke Company
Продолжительность: 01:26:47
Перевод: авторский (одноголосый закадровый) [Антон Алексеев]

Файл
Качество: DVDRip
Формат: AVI
Видео: XviD, 640x480 (4:3), 29.970 fps, 1859 kbps
Аудио #1: русский, AC3 2.0, 48 kHz, 192 kbps
Аудио #2: английский, AC3 2.0, 48 kHz, 192 kbps
Общее
Полное имя : Little.Ghost.1997.DVDRip.avi
Формат : AVI
Формат/Информация : Audio Video Interleave
Размер файла : 1,37 Гбайт
Продолжительность : 1 ч. 26 м.
Общий поток : 2253 Кбит/сек
Программа кодирования : VirtualDubMod 1.5.4.1 (build 2178/release)
Библиотека кодирования : VirtualDubMod build 2178/release

Видео
Идентификатор : 0
Формат : MPEG-4 Visual
Профиль формата : Advanced Simple@L5
Параметр BVOP формата : 1
Параметр QPel формата : Нет
Параметр GMC формата : Без точки перехода
Параметр матрицы формата : Выборочная
Идентификатор кодека : XVID
Идентификатор кодека/Подсказка : XviD
Продолжительность : 1 ч. 26 м.
Битрейт : 1859 Кбит/сек
Ширина : 640 пикселей
Высота : 480 пикселей
Соотношение сторон : 4:3
Частота кадров : 29,970 кадров/сек
Цветовое пространство : YUV
Субдискретизация насыщенности : 4:2:0
Битовая глубина : 8 бит
Тип развёртки : Прогрессивная
Метод сжатия : С потерями
Бит/(Пиксели*Кадры) : 0.202
Размер потока : 1,13 Гбайт (83%)
Библиотека кодирования : XviD 1.2.1 (UTC 2008-12-04)

Аудио #1
Идентификатор : 1
Формат : AC-3
Формат/Информация : Audio Coding 3
Расширение режима : CM (complete main)
Параметр Endianness формата : Big
Идентификатор кодека : 2000
Продолжительность : 1 ч. 26 м.
Вид битрейта : Постоянный
Битрейт : 192 Кбит/сек
Каналы : 2 канала
Расположение каналов : Front: L R
Частота : 48,0 КГц
Метод сжатия : С потерями
Размер потока : 119 Мбайт (9%)
Выравнивание : Разделение по промежуткам
Продолжительность промежутка : 96 мс. (2,88 видеокадра)
Время предзагрузки промежутка : 96 мс.
Язык : Russian

Аудио #2
Идентификатор : 2
Формат : AC-3
Формат/Информация : Audio Coding 3
Расширение режима : CM (complete main)
Параметр Endianness формата : Big
Идентификатор кодека : 2000
Продолжительность : 1 ч. 26 м.
Вид битрейта : Постоянный
Битрейт : 192 Кбит/сек
Каналы : 2 канала
Расположение каналов : Front: L R
Частота : 48,0 КГц
Метод сжатия : С потерями
Размер потока : 119 Мбайт (9%)
Выравнивание : Разделение по промежуткам
Продолжительность промежутка : 96 мс. (2,88 видеокадра)
Время предзагрузки промежутка : 96 мс.
Язык : English
Перевод: Антон Алексеев 2016г.
Сведение звука: Diablo
Релиз от:



Скачать Маленькое.привидение.Little.Ghost.(Линда.Шэйн).[1997.фэнтези.семейный.DVDRip].[AVO.(Антон.Алексеев)].torrent без регистрации
Золото ЗОЛОТАЯ РАЗДАЧА! СКАЧАННОЕ НЕ ЗАСЧИТЫВАЕТСЯ! Золото
Дата: Зарегистрирован   [ Тип: внутренний ] Как тут cкачать?
MAGNET ссылка
MAGNET ссылка


Скачать .torrent

14 KB

Статус: проверено DHT
Скачан: торрент - 42 раз, раздача полностью - 1 раз
Размер: 1,37 GB
Оценка:  - (Голосов: 0)
Поблагодарили: 0
Поделиться ссылкой на эту раздачу с друзьями:
В контактеFacebookОдноклассникиTwitterLivejournalМой МирLiveinternet
 

 
Показать сообщения:    


Вы не можете начинать темы
Вы не можете отвечать на сообщения
Вы не можете редактировать свои сообщения
Вы не можете удалять свои сообщения
Вы не можете голосовать в опросах
Вы не можете прикреплять файлы к сообщениям
Вы можете скачивать файлы