Loading...
Error

Скачать Секретные материалы / The X-Files (сезон 10) (Крис Картер и др.) [2016, фантастика, триллер, драма, детектив, WEB-DLRip] [Dub (TB3)]+[Sub Rus] торрент без регистрации

 
Статистика раздачи
Размер:  2,17 GB   |    Скачан:  140 раз
Сидов:  1  [  0 KB/s  ]  
 
Автор Сообщение

МихаНЕзатор

[] 

Информация о фильме
Название: Секретные материалы
Оригинальное название: The X-Files
Год выхода: 2016
Жанр: Фантастика, триллер, драма, детектив
Режиссер: Крис Картер, Дэрин Морган, Глен Морган

В ролях: Дэвид Духовны, Джиллиан Андерсон, Митч Пиледжи, Уильям Б. Дэвис, Робби Амелл, Том Брэйдвуд, Дин Хэглунд, Брюс Харвуд, Джоэл МакХэйл, Лорен Эмброуз

О фильме: Специальные агенты ФБР, Фокс Малдер и Дана Скалли, снова работают вместе, чтобы расследовать странные и необъяснимые дела, связанные с паранормальными явлениями.

Релиз от:

Страна: США
Продолжительность: 3 x ~ 00:45:00
Перевод: профессиональный дублированный - ТВ3

Файл
Качество: WEB-DLRip
Формат: AVI
Видео: 656x368 (16:9), XviD, ~1020 kbps avg, 23.976 fps, 0.178 bit/pixel
Аудио rus: 48 kHz, MP3, 2 ch, 128.00 kbps avg
Субтитры: русские (форсированные на надписи)

АНОНСЫ ПОПУЛЯРНЫХ РАЗДАЧ


Торрент обновлён, добавлена 6-я серия!
Полное имя : The.X-Files.(Sezon.10).2016.WEB-DLRip.by.GeneralFilmSerija.01.avi
Формат : AVI
Формат/Информация : Audio Video Interleave
Размер файла : 371 Мбайт
Продолжительность : 44 м.
Общий поток : 1164 Кбит/сек
Программа кодирования : VirtualDubMod 1.5.10.3 | www.virtualdub-fr.org || (build 2550/release)
Библиотека кодирования : VirtualDubMod build 2550/release

Видео
Идентификатор : 0
Формат : MPEG-4 Visual
Профиль формата : Advanced Simple@L5
Параметр BVOP формата : 1
Параметр QPel формата : Нет
Параметр GMC формата : Без точки перехода
Параметр матрицы формата : Выборочная
Идентификатор кодека : XVID
Идентификатор кодека/Подсказка : XviD
Продолжительность : 44 м.
Битрейт : 1028 Кбит/сек
Ширина : 656 пикселей
Высота : 368 пикселей
Соотношение сторон : 16:9
Частота кадров : 23,976 (23976/1000) кадра/сек
Цветовое пространство : YUV
Субдискретизация насыщенности : 4:2:0
Битовая глубина : 8 бит
Тип развёртки : Прогрессивная
Метод сжатия : С потерями
Бит/(Пиксели*Кадры) : 0.178
Размер потока : 328 Мбайт (88%)
Библиотека кодирования : XviD 73

Аудио
Идентификатор : 1
Формат : MPEG Audio
Версия формата : Version 1
Профиль формата : Layer 3
Идентификатор кодека : 55
Идентификатор кодека/Подсказка : MP3
Продолжительность : 43 м.
Вид битрейта : Постоянный
Битрейт : 128 Кбит/сек
Каналы : 2 канала
Частота : 48,0 КГц
Метод сжатия : С потерями
Размер потока : 40,3 Мбайт (11%)
Выравнивание : Соединение по промежуткам
Продолжительность промежутка : 42 мс. (1,01 видеокадр)
Время предзагрузки промежутка : 504 мс.
Библиотека кодирования : LAME3.99r
Настройки программы : -m s -V 4 -q 0 -lowpass 17 -b 128



Скачать Секретные.материалы.The.X-Files.(сезон.10).(Крис.Картер.и.др.).[2016.фантастика.триллер.драма.детектив.WEB-DLRip].[Dub.(TB3)]+[Sub.Rus].torrent без регистрации
Золото ЗОЛОТАЯ РАЗДАЧА! СКАЧАННОЕ НЕ ЗАСЧИТЫВАЕТСЯ! Золото
Дата: Зарегистрирован   [ Тип: внутренний ] Как тут cкачать?
MAGNET ссылка
MAGNET ссылка


Скачать .torrent

12 KB

Статус: проверено DHT
Скачан: торрент - 140 раз, раздача полностью - 24 раз
Размер: 2,17 GB
Оценка:  5 (Голосов: 1)
Поблагодарили: 3
Поделиться ссылкой на эту раздачу с друзьями:
В контактеFacebookОдноклассникиTwitterLivejournalМой МирLiveinternet
 

 
Показать сообщения:    


Вы не можете начинать темы
Вы не можете отвечать на сообщения
Вы не можете редактировать свои сообщения
Вы не можете удалять свои сообщения
Вы не можете голосовать в опросах
Вы не можете прикреплять файлы к сообщениям
Вы можете скачивать файлы