Loading...
Error

Скачать Прощай, Бафана / Goodbye Bafana (Билле Аугуст) [2007, драма, биография, история, экранизация, HDRip] [MVO] торрент без регистрации

 
Статистика раздачи
Размер:  747 MB   |    Скачан:  55 раз
Сидов:  1  [  0 KB/s  ]  
 
Автор Сообщение

Marsianka

[] 

Информация о фильме
Название: Прощай, Бафана
Оригинальное название: Goodbye Bafana
Год выхода: 2007
Жанр: драма, биография, история, экранизация
Режиссер: Билле Аугуст
В ролях: Джозеф Файнс, Дэннис Хэйсбёрт, Дайан Крюгер Шило Хендерсон, Тайрон Кеог, Меган Смит, Джессика Мануэль

О фильме:
В основу ленты положена книга Джеймса Грегори и Боба Грэма, повествующая о белом южноафриканском расисте, в течение 20 лет охранявшем прославленного политзаключенного Нельсона Манделу, который в итоге коренным образом изменил его жизнь. Один из авторов книги Джеймс Грегори вырос на ферме в Транскее и с детства прекрасно говорил на африканском языке коса. Став тюремщиком, он пользовался этими знаниями, шпионя за Манделой и другими темнокожими заключенными, которые и не подозревали, что он понимает их речь.



Страна: Германия, Франция, Бельгия, ЮАР, Италия, Великобритания, Люксембург
Студия: Banana Films, Arsam International, Film Afrika Worldwide
Продолжительность: 01:57:55
Перевод: Профессиональный (многоголосый, закадровый)

Файл
Кодек: XviD
Качество: HDRip
Видео: 608x256 (2.38:1), 24.000 fps, XviD build 73 ~748 kbps avg, 0.20 bit/pixel
Звук: 48 kHz, MPEG Layer 3, 2 ch, ~128.00 kbps avg
Субтитры: Отсутствует
Семпл
Общее
Complete name : D:Изготовление рипаGoodbye Bafana 2007 HDRip by shkiper.avi
Format : AVI
Format/Info : Audio Video Interleave
File size : 747 Мбайт
Duration : 1 ч. 57 м.
Overall bit rate : 886 Кбит/сек
Writing application : VirtualDubMod 1.5.10.3 | www.virtualdub-fr.org || (build 2550/release)
Writing library : VirtualDubMod build 2550/release

Видео
ID : 0
Format : MPEG-4 Visual
Format profile : Advanced Simple@L5
Format settings, BVOP : 1
Format settings, QPel : Нет
Format settings, GMC : Без точки перехода
Format settings, Matrix : Выборочная
Codec ID : XVID
Codec ID/Hint : XviD
Duration : 1 ч. 57 м.
Bit rate : 749 Кбит/сек
Width : 608 пикселей
Height : 256 пикселей
Display aspect ratio : 2,40:1
Frame rate : 24,000 кадра/сек
Color space : YUV
Chroma subsampling : 4:2:0
Bit depth : 8 бит
Scan type : Прогрессивная
Compression mode : С потерями
Bits/(Pixel*Frame) : 0.201
Stream size : 632 Мбайт (85%)
Writing library : XviD 73

Аудио
ID : 1
Format : MPEG Audio
Format version : Version 1
Format profile : Layer 3
Codec ID : 55
Codec ID/Hint : MP3
Duration : 1 ч. 57 м.
Bit rate mode : Постоянный
Bit rate : 128 Кбит/сек
Channel(s) : 2 канала
Sampling rate : 48,0 КГц
Compression mode : С потерями
Stream size : 108 Мбайт (14%)
Alignment : Соединение по промежуткам
Interleave, duration : 42 мс. (1,00 видеокадр)
Interleave, preload duration : 504 мс.
Writing library : LAME3.99r
Encoding settings : -m s -V 4 -q 2 -lowpass 17 -b 128
Релиз от:



Скачать Прощай.Бафана.Goodbye.Bafana.(Билле.Аугуст).[2007.драма.биография.история.экранизация.HDRip].[MVO].torrent без регистрации
Золото ЗОЛОТАЯ РАЗДАЧА! СКАЧАННОЕ НЕ ЗАСЧИТЫВАЕТСЯ! Золото
Дата: Зарегистрирован   [ Тип: внутренний ] Как тут cкачать?
MAGNET ссылка
MAGNET ссылка


Скачать .torrent

15 KB

Статус: проверено DHT
Скачан: торрент - 55 раз, раздача полностью - 3 раз
Размер: 747 MB
Оценка:  - (Голосов: 0)
Поблагодарили: 1
Поделиться ссылкой на эту раздачу с друзьями:
В контактеFacebookОдноклассникиTwitterLivejournalМой МирLiveinternet
 

 
Показать сообщения:    


Вы не можете начинать темы
Вы не можете отвечать на сообщения
Вы не можете редактировать свои сообщения
Вы не можете удалять свои сообщения
Вы не можете голосовать в опросах
Вы не можете прикреплять файлы к сообщениям
Вы можете скачивать файлы