Loading...
Error

Скачать Люцифер / Lucifer (Сезон 01) (Лен Уайзман, Мэтт Эрл Бисли, Эгил Эгилссон) [2016, фэнтези, драма, WEB-DLRip] [MVO] (NewStudio) + [Orig] торрент без регистрации

 
Статистика раздачи
Размер:  7,01 GB   |    Скачан:  281 раз
Сидов:  1  [  0 KB/s  ]  
 
Автор Сообщение

leon030982

[] 

ЛЮЦИФЕР
Lucifer


Год выпуска: 2016
Страна: США
Жанр: фэнтези, драма
Продолжительность: 1x ~ 00:45:00
Перевод: Профессиональный (многоголосый закадровый) NewStudio
Субтитры: отсутствуют
Без рекламных ВидеоАудио вставок !
Режиссёр: Лен Уайзман, Мэтт Эрл Бисли, Эгил Эгилссон

В ролях: Том Эллис, Лорен Джерман, Рэйчел Харрис, Лесли-Энн Брандт, Мэтт Корбой, Скарлет Эстевез, Джонатан Салисбери и др.


Дьявол приехал в Город Ангелов...
Основанный на персонажах, созданных Нилом Гейманом, Сэмом Китом и Майком Дрингенбергом для издания DC комиксов, Lucifer ─ это история первого падшего ангела. Заскучав и не видя радости быть королем ада, Люцифер Морнингстар бросает трон и направляется в Лос-Анджелес, где у него есть первоклассный ночной клуб Люкс...

Сэмпл

Качество: WEB-DLRip
Формат: AVI
Видео: XviD, 720x400 (16:9), 23,976 fps, ~1500 kbps
Аудио: MP3, 48 kHz, 2 ch, 128 kbps [MVO]
Аудио: MP3, 48 kHz, 2 ch, 128 kbps [ENG]

Раздача от -- JuSSiKa

Добавлена 12-13-я серия! Финал сезона

Код:

 E:\Сериалы\Lucifer.S01.WEB-DLRip.RusEng.NewStudio\Lucifer.S01E01.WEB-DLRip.RusEng.NewStudio.L.avi
Формат                                   : AVI
Формат/Информация                        : Audio Video Interleave
Размер файла                             : 570 Мбайт
Продолжительность                        : 44 м.
Общий поток                              : 1775 Кбит/сек
Программа кодирования                    : VirtualDubMod 1.5.10.3 (build 2550/release)
Библиотека кодирования                   : VirtualDubMod build 2550/release
Видео
Идентификатор                            : 0
Формат                                   : MPEG-4 Visual
Профиль формата                          : Advanced Simple@L5
Параметр BVOP формата                    : 1
Параметр QPel формата                    : Нет
Параметр GMC формата                     : Без точки перехода
Параметр матрицы формата                 : Default (H.263)
Идентификатор кодека                     : XVID
Идентификатор кодека/Подсказка           : XviD
Продолжительность                        : 44 м.
Битрейт                                  : 1505 Кбит/сек
Ширина                                   : 720 пикселей
Высота                                   : 400 пикселей
Соотношение сторон                       : 16:9
Частота кадров                           : 23,976 кадра/сек
Цветовое пространство                    : YUV
Субдискретизация насыщенности            : 4:2:0
Битовая глубина                          : 8 бит
Тип развёртки                            : Прогрессивная
Метод сжатия                             : С потерями
Бит/(Пиксели*Кадры)                      : 0.218
Размер потока                            : 483 Мбайт (85%)
Библиотека кодирования                   : XviD 73
Аудио #1
Идентификатор                            : 1
Формат                                   : MPEG Audio
Версия формата                           : Version 1
Профиль формата                          : Layer 3
Режим                                    : Joint stereo
Идентификатор кодека                     : 55
Идентификатор кодека/Подсказка           : MP3
Продолжительность                        : 44 м.
Вид битрейта                             : Постоянный
Битрейт                                  : 128 Кбит/сек
Каналы                                   : 2 канала
Частота                                  : 48,0 КГц
Метод сжатия                             : С потерями
Размер потока                            : 41,1 Мбайт (7%)
Выравнивание                             : Соединение по промежуткам
Продолжительность промежутка             : 42  мс. (1,00 видеокадр)
Время предзагрузки промежутка            : 504  мс.
Аудио #2
Идентификатор                            : 2
Формат                                   : MPEG Audio
Версия формата                           : Version 1
Профиль формата                          : Layer 3
Режим                                    : Joint stereo
Идентификатор кодека                     : 55
Идентификатор кодека/Подсказка           : MP3
Продолжительность                        : 44 м.
Вид битрейта                             : Постоянный
Битрейт                                  : 128 Кбит/сек
Каналы                                   : 2 канала
Частота                                  : 48,0 КГц
Метод сжатия                             : С потерями
Размер потока                            : 41,1 Мбайт (7%)
Выравнивание                             : Соединение по промежуткам
Продолжительность промежутка             : 42  мс. (1,00 видеокадр)
Время предзагрузки промежутка            : 504  мс.
Внимание! Раздача ведётся путём добавления новых серий; при каждом добавлении создаётся новый торрент. Чтобы начать докачку новой серии, пользователям необходимо сделать следующее:
(1) остановить скачивание,
(2) удалить старый торрент у себя из клиента (старые серии удалять не надо),
(3) скачать новый торрент и запустить его у себя в клиенте вместо старого, при этом указать клиенту путь в старую папку куда и должно происходить скачивание новых серий.
Ваш клиент при этом должен произвести хеширование (проверку) старой папки (если не производит сам - помогите ему сделать это), и будет докачивать только те серии которых у вас ещё нет. Старые серии при этом не удаляются, а продолжают раздаваться!
Eсли вы уже удалили старые серии, то предотвратить повторную закачку старых серий можно, отжав галочку в соответствующих местах при запуске нового торрента. По возможности, желательно не удалять старые серии как можно дольше чтобы релизёр не столько продолжал раздавать старые серии, а смог сконцентрироваться на новых.



Скачать Люцифер.Lucifer.(Сезон.01).(Лен.Уайзман.Мэтт.Эрл.Бисли.Эгил.Эгилссон).[2016.фэнтези.драма.WEB-DLRip].[MVO].(NewStudio).+.[Orig].torrent без регистрации
Золото ЗОЛОТАЯ РАЗДАЧА! СКАЧАННОЕ НЕ ЗАСЧИТЫВАЕТСЯ! Золото
Дата: Зарегистрирован   [ Тип: внутренний ] Как тут cкачать?
MAGNET ссылка
MAGNET ссылка


Скачать .torrent

36 KB

Статус: проверено DHT
Скачан: торрент - 281 раз, раздача полностью - 175 раз
Размер: 7,01 GB
Оценка:  4,5 (Голосов: 2)
Поблагодарили: 10
Поделиться ссылкой на эту раздачу с друзьями:
В контактеFacebookОдноклассникиTwitterLivejournalМой МирLiveinternet
 

 

leon030982

[] 

Код:

2-я серия!
 

leon030982

[] 

Код:

Добавлена 6-9-я серия
 

leon030982

[] 

Код:

10-11-я серия
 

leon030982

[] 

Код:

Финал сезона
 
Показать сообщения:    


Вы не можете начинать темы
Вы не можете отвечать на сообщения
Вы не можете редактировать свои сообщения
Вы не можете удалять свои сообщения
Вы не можете голосовать в опросах
Вы не можете прикреплять файлы к сообщениям
Вы можете скачивать файлы