Loading...
Error

Скачать Город живых мертвецов / City of the Living Dead [1980 г., ужасы, BDRip] [MVO, AVO] торрент без регистрации

 
Статистика раздачи
Размер:  1,46 GB   |    Скачан:  47 раз
Сидов:  1  [  0 KB/s  ]  
 
Автор Сообщение

durik

[] 

Город живых мертвецов / City of the Living Dead

Информация о фильме
Название: Город живых мертвецов
Оригинальное название: City of the Living Dead
Год выхода: 1980
Жанр: ужасы
Режиссер: Лучио Фульчи
В ролях: Кристофер Джордж, Катриона МакКолл, Карло Де Мейо, Антонелла Интерленьи, Джованни Ломбардо Радице, Даниела Дория, Фабрицио Жовин, Люка Венантини, Микеле Соави, Венантино Венантини, Энзо Д’Осилио, Аделаида Асте, Лючано Росси, Роберт Сэмпсон, Джанет Агрен, Лучио Фульчи, Майкл Гонт, Перри Пирканен, Мартин Соррентино

О фильме:
Женщина-медиум во время спиритического сеанса увидела город Данвич, где вскоре должны разверзнутся врата ада. От ужаса она впала в летаргию и едва не была похоронена заживо. Уже из могилы ее откопал не то журналист, не то частный детектив, и они вдвоем отправились на поиски страшного города, чтобы предотвратить катастрофу. А в Данвиче тем временем оживали мертвецы, шел дождь из трупных червей, увидев призрак, девушка выблевала все внутренности, а одному пареньку просверлили голову на станке.



Страна: Италия
Студия: Dania Film, Medusa Distribuzione, National Cinematografica
Продолжительность: 01:31:24
Перевод:
1. Профессиональный (многоголосый, закадровый) R5
2. Авторский (одноголосый закадровый) Гаврилов

Файл
Кодек: XviD
Качество: BDRip
Видео: 720x384, 1471 kbps, 23,976 fps, 0,222 Bits/(Pixel*Frame)
Звук:
1. AC3, 48 kHz, 6 ch, 384 kbps - R5
2. AC3, 48 kHz, 6 ch, 384 kbps - Гаврилов
Субтитры: Нет
General
Complete name : G:City.of.the.Living.Dead.1980p.BDRip_by_Bathory.avi
Format : AVI
Format/Info : Audio Video Interleave
File size : 1.46 GiB
Duration : 1h 32mn
Overall bit rate : 2 249 Kbps

Video
ID : 0
Format : MPEG-4 Visual
Format profile : Advanced Simple@L5
Format settings, BVOP : 1
Format settings, QPel : No
Format settings, GMC : No warppoints
Format settings, Matrix : Custom
Codec ID : XVID
Codec ID/Hint : XviD
Duration : 1h 32mn
Bit rate : 1 471 Kbps
Width : 720 pixels
Height : 384 pixels
Display aspect ratio : 1.85:1
Frame rate : 23.976 fps
Color space : YUV
Chroma subsampling : 4:2:0
Bit depth : 8 bits
Scan type : Progressive
Compression mode : Lossy
Bits/(Pixel*Frame) : 0.222
Stream size : 976 MiB (65%)
Writing library : XviD 67

Audio #1
ID : 1
Format : AC-3
Format/Info : Audio Coding 3
Mode extension : CM (complete main)
Format settings, Endianness : Big
Codec ID : 2000
Duration : 1h 32mn
Bit rate mode : Constant
Bit rate : 384 Kbps
Channel(s) : 6 channels
Channel positions : Front: L C R, Side: L R, LFE
Sampling rate : 48.0 KHz
Bit depth : 16 bits
Compression mode : Lossy
Stream size : 255 MiB (17%)
Alignment : Aligned on interleaves
Interleave, duration : 64 ms (1.53 video frames)
Interleave, preload duration : 192 ms
Title : City.of.the.Living.Dead.1980p.Bluray.AVC.Remux - [0] Russian_new

Audio #2
ID : 2
Format : AC-3
Format/Info : Audio Coding 3
Mode extension : CM (complete main)
Format settings, Endianness : Big
Codec ID : 2000
Duration : 1h 32mn
Bit rate mode : Constant
Bit rate : 384 Kbps
Channel(s) : 6 channels
Channel positions : Front: L C R, Side: L R, LFE
Sampling rate : 48.0 KHz
Bit depth : 16 bits
Compression mode : Lossy
Stream size : 255 MiB (17%)
Alignment : Aligned on interleaves
Interleave, duration : 64 ms (1.53 video frames)
Interleave, preload duration : 192 ms
Title : City.of.the.Living.Dead.1980p.Bluray.AVC.Remux - [1] Russian_new


Релиз от:

Автор рипа: Bathory



Скачать Город.живых.мертвецов.City.of.the.Living.Dead.[1980.г.ужасы.BDRip].[MVO.AVO].torrent без регистрации
Золото ЗОЛОТАЯ РАЗДАЧА! СКАЧАННОЕ НЕ ЗАСЧИТЫВАЕТСЯ! Золото
Дата: Зарегистрирован   [ Тип: внутренний ] Как тут cкачать?
MAGNET ссылка
MAGNET ссылка


Скачать .torrent

16 KB

Статус: проверено DHT
Скачан: торрент - 47 раз, раздача полностью - 6 раз
Размер: 1,46 GB
Оценка:  - (Голосов: 0)
Поблагодарили: 1
Поделиться ссылкой на эту раздачу с друзьями:
В контактеFacebookОдноклассникиTwitterLivejournalМой МирLiveinternet
 

 
Показать сообщения:    


Вы не можете начинать темы
Вы не можете отвечать на сообщения
Вы не можете редактировать свои сообщения
Вы не можете удалять свои сообщения
Вы не можете голосовать в опросах
Вы не можете прикреплять файлы к сообщениям
Вы можете скачивать файлы