Loading...
Error

/ The People v. O.J. Simpson: American Crime Story ( 01, 01-02 10) ( , ) [2016 ., , , , HDTVRip] [720p] [MVO] (Jaskier)

 
2,88 GB   |    :  802

: 19

 

leon030982

[] 

| The People v. O.J. Simpson: American Crime Story


: 2016
:
: , ,
: ~00:60:00
: ( ) [Jaskier]
:

: ,

: , , . , , ., , , , ,


-, . .
, 1995 . . . .



: HDTVRip 720p
: MKV
: AVC, 1280x720 (16:9), 23.976 fps, ~3243 kbps, ~0.147 bit/pixel
1: AC3, 48 kHz, stereo, 192 kbps - [MVO]
2: AC3, 48 kHz, 6 ch, 384 kbps - [ENG]

2- !

:

General
Unique ID : 234224532311254686731912622150111855070 (0xB0360109582A1323848C3A2CC0DE01DE)
Complete name : Z:\HD\American Crime Story. Season 1 (HDTVRip l 720p l Jaskier)\American.Crime.Story.S01E01.720p.HDTV.x264-JASKiER.mkv
Format : Matroska
Format version : Version 1
File size : 1.57 GiB
Duration : 57mn 40s
Overall bit rate : 3 897 Kbps
Encoded date : UTC 2016-02-04 13:01:49
Writing application : mkvmerge v2.3.0 ('Freak U') built on Sep 8 2008 18:32:16
Writing library : libebml v0.7.7 + libmatroska v0.8.1
Video
ID : 1
Format : AVC
Format/Info : Advanced Video Codec
Format profile : High@L4.1
Format settings, CABAC : Yes
Format settings, ReFrames : 5 frames
Codec ID : V_MPEG4/ISO/AVC
Duration : 57mn 40s
Bit rate : 3 243 Kbps
Width : 1 280 pixels
Height : 720 pixels
Display aspect ratio : 16:9
Frame rate : 23.976 fps
Color space : YUV
Chroma subsampling : 4:2:0
Bit depth : 8 bits
Scan type : Progressive
Bits/(Pixel*Frame) : 0.147
Stream size : 1.31 GiB (83%)
Writing library : x264 core 148 r2665 a01e339
Encoding settings : cabac=1 / ref=5 / deblock=1:0:0 / analyse=0x3:0x113 / me=umh / subme=8 / psy=1 / psy_rd=1.00:0.00 / mixed_ref=1 / me_range=16 / chroma_me=1 / trellis=1 / 8x8dct=1 / cqm=0 / deadzone=21,11 / fast_pskip=1 / chroma_qp_offset=-2 / threads=22 / lookahead_threads=3 / sliced_threads=0 / nr=0 / decimate=1 / interlaced=0 / bluray_compat=0 / constrained_intra=0 / bframes=3 / b_pyramid=2 / b_adapt=2 / b_bias=0 / direct=3 / weightb=1 / open_gop=0 / weightp=2 / keyint=250 / keyint_min=23 / scenecut=40 / intra_refresh=0 / rc_lookahead=50 / rc=crf / mbtree=1 / crf=18.0 / qcomp=0.60 / qpmin=0 / qpmax=69 / qpstep=4 / ip_ratio=1.40 / aq=1:1.00
Language : English
Default : Yes
Forced : No
Matrix coefficients : BT.709-5, BT.1361, IEC 61966-2-4 709, SMPTE RP177
Audio #1
ID : 2
Format : AC-3
Format/Info : Audio Coding 3
Mode extension : CM (complete main)
Format settings, Endianness : Big
Codec ID : A_AC3
Duration : 57mn 40s
Bit rate mode : Constant
Bit rate : 192 Kbps
Channel(s) : 2 channels
Channel positions : Front: L R
Sampling rate : 48.0 KHz
Bit depth : 16 bits
Compression mode : Lossy
Stream size : 79.2 MiB (5%)
Language : Russian
Default : Yes
Forced : No
Audio #2
ID : 3
Format : AC-3
Format/Info : Audio Coding 3
Mode extension : CM (complete main)
Format settings, Endianness : Big
Codec ID : A_AC3
Duration : 57mn 40s
Bit rate mode : Constant
Bit rate : 384 Kbps
Channel(s) : 6 channels
Channel positions : Front: L C R, Side: L R, LFE
Sampling rate : 48.0 KHz
Bit depth : 16 bits
Compression mode : Lossy
Stream size : 158 MiB (10%)
Language : English
Default : No
Forced : No
! ; . , : .
( ).
, .
() ( - ), . , !
E , , . , , .



...The.People.v.O.J.Simpson.American.Crime.Story.(.01..01-02..10).(...).[2016.....HDTVRip].[720p].[MVO].(Jaskier).torrent
  ! ! 
:   [ : ] c?
MAGNET
MAGNET


.torrent

15 KB

: DHT
: - 802 , - 2
: 2,88 GB
2 (: 1)
: 0
:
 FacebookTwitterLivejournal Liveinternet
 

 
: