Loading...
Error

/ New in Town ( ) [2009, , , BDRip] [Dub]+[Original (Eng)]+[Subs (Rus, Eng)]

 
1,76 GB   |    :  331

: 26

 

Shara

[] 

/ New in Town
, . ,

: 2009
: , / Edmonds Entertainment
: ,
: 01:36:48
: ( )
+
: , ( .srt*)
:
/ Jonas Elmer
:
(Lucy Hill), . (Ted Mitchell), (Blanche Gunderson), .. (Stu Kopenhafer), Β (Lars Ulstead), (Trudy Van Uuden), (Bobbie Mitchell), (Joan), (Rob Deitmar)
:
, . - . , , .
| | IMDB | | |
: BDRip []
: AVI
: 704x400 (1.76:1), 23.976 fps, XviD build 73 ~1695 kbps avg, 0.25 bit/pixel
#1: 48 kHz, AC3 Dolby Digital, 3/2 (L,C,R,l,r) + LFE ch, ~448.00 kbps avg (RUS)
#2: 48 kHz, AC3 Dolby Digital, 3/2 (L,C,R,l,r) + LFE ch, ~448.00 kbps avg (ENG)

:

General
Complete name : D:\Zamerzshaya_iz_Mayami_2009_BDRip_by_Dalemake.avi
Format : AVI
Format/Info : Audio Video Interleave
File size : 1.46 GiB
Duration : 1h 36mn
Overall bit rate : 2 153 Kbps
Writing application : VirtualDubMod 1.5.10.3 | www.virtualdub-fr.org || (build 2550/release)
Writing library : VirtualDubMod build 2550/release
Video
ID : 0
Format : MPEG-4 Visual
Format profile : Advanced Simple@L5
Format settings, BVOP : 1
Format settings, QPel : No
Format settings, GMC : No warppoints
Format settings, Matrix : Custom
Codec ID : XVID
Codec ID/Hint : XviD
Duration : 1h 36mn
Bit rate : 1 696 Kbps
Width : 704 pixels
Height : 400 pixels
Display aspect ratio : 16:9
Frame rate : 23.976 fps
Color space : YUV
Chroma subsampling : 4:2:0
Bit depth : 8 bits
Scan type : Progressive
Compression mode : Lossy
Bits/(Pixel*Frame) : 0.251
Stream size : 1.15 GiB (79%)
Writing library : XviD 73
Audio
ID : 1
Format : AC-3
Format/Info : Audio Coding 3
Mode extension : CM (complete main)
Format settings, Endianness : Big
Codec ID : 2000
Duration : 1h 36mn
Bit rate mode : Constant
Bit rate : 448 Kbps
Channel(s) : 6 channels
Channel positions : Front: L C R, Side: L R, LFE
Sampling rate : 48.0 KHz
Bit depth : 16 bits
Compression mode : Lossy
Stream size : 310 MiB (21%)
Alignment : Split accross interleaves
Interleave, duration : 42 ms (1.00 video frame)
Interleave, preload duration : 500 ms




...New.in.Town.(.).[2009...BDRip].[Dub]+[Original.(Eng)]+[Subs.(Rus.Eng)].torrent
  ! ! 
:   [ : ] c?
MAGNET
MAGNET


.torrent

19 KB

: DHT
: - 331 , - 26
: 1,76 GB
5 (: 1)
: 2
:
 FacebookTwitterLivejournal Liveinternet
 

 
: