Loading...
Error

Скачать Большое приключение / La gran aventura (Роберто Родригес) [1969, приключения, семейный, DVDRip] [VO]+[Sub]x2 торрент без регистрации

 
Статистика раздачи
Размер:  1,51 GB   |    Скачан:  41 раз
Сидов:  1  [  0 KB/s  ]  
 
Автор Сообщение

Marsianka

[] 

Информация о фильме
Название: Большое приключение
Оригинальное название: La gran aventura
Год выхода: 1969
Жанр: приключения, семейный
Режиссер: Роберто Родригес
В ролях: Нино Дель Арко, Хулиансито Браво, Дасиа Гонсалес, Дагоберто Родригес, Беатрис Бас, Рауль Мерас, Эдуардо Алькарас, Сюзанна Кабрера, Антонио Раксель, Гильермо Алварез Бьянчи, Рауль Падилла, Викторио Бланко, Иисус Гомез

О фильме:
Девятилетний Хуанито с родителями прилетает в отпуск из Испании в Мексику, где встречается с мексиканским мальчиком Пепе и собакой Джеки. Затем они попадают в переплёт, грозящий приводом в полицию. Сбежав от полиции, мальчики теряются в незнакомом городе. Теперь им предстоит, всячески избегая полиции и по ходу дела преодолевая культурно-языковые различия, встретиться с родителями. Объявленная через прессу отцом Хуанито награда за находку мальчика производит непредвиденное действие на алчное народонаселение, что добавляет остроты и комичности последующим приключениям, побегам и погоням.



Страна: Мексика
Продолжительность: 01:42:14
Перевод: любительский (одноголосый закадровый) [viktor_2838]

Файл
Качество: DVDRip
Формат: AVI
Видео: XviD, 720x544 (4:3), 23,976 fps, 1683 kbps
Аудио #1: русский, MP3 2.0, 48 kHz, 192 kbps
Аудио #2: испанский, AC3 2.0, 48 kHz, 224 kbps
Субтитры: русские [andrsib], английские внешние, SRT
Общее
Полное имя : La.gran.aventura.1969.DVDRip.avi
Формат : AVI
Формат/Информация : Audio Video Interleave
Размер файла : 1,51 Гбайт
Продолжительность : 1 ч. 42 м.
Общий поток : 2112 Кбит/сек
Программа кодирования : VirtualDubModRus 1.5.10.2 (build 2542/release)
Библиотека кодирования : VirtualDubMod build 2542/release

Видео
Идентификатор : 0
Формат : MPEG-4 Visual
Профиль формата : Advanced Simple@L5
Параметр BVOP формата : 1
Параметр QPel формата : Нет
Параметр GMC формата : Без точки перехода
Параметр матрицы формата : Выборочная
Идентификатор кодека : XVID
Идентификатор кодека/Подсказка : XviD
Продолжительность : 1 ч. 42 м.
Битрейт : 1683 Кбит/сек
Ширина : 720 пикселей
Высота : 544 пикселя
Соотношение сторон : 4:3
Частота кадров : 23,976 кадра/сек
Цветовое пространство : YUV
Субдискретизация насыщенности : 4:2:0
Битовая глубина : 8 бит
Тип развёртки : Прогрессивная
Метод сжатия : С потерями
Бит/(Пиксели*Кадры) : 0.179
Размер потока : 1,20 Гбайт (80%)
Библиотека кодирования : XviD 64

Аудио #1
Идентификатор : 1
Формат : MPEG Audio
Версия формата : Version 1
Профиль формата : Layer 3
Режим : Joint stereo
Расширение режима : MS Stereo
Идентификатор кодека : 55
Идентификатор кодека/Подсказка : MP3
Продолжительность : 1 ч. 42 м.
Вид битрейта : Постоянный
Битрейт : 192 Кбит/сек
Каналы : 2 канала
Частота : 48,0 КГц
Метод сжатия : С потерями
Размер потока : 140 Мбайт (9%)
Выравнивание : Соединение по промежуткам
Продолжительность промежутка : 42 мс. (1,00 видеокадр)
Время предзагрузки промежутка : 504 мс.

Аудио #2
Идентификатор : 2
Формат : AC-3
Формат/Информация : Audio Coding 3
Расширение режима : CM (complete main)
Параметр Endianness формата : Big
Идентификатор кодека : 2000
Продолжительность : 1 ч. 42 м.
Вид битрейта : Постоянный
Битрейт : 224 Кбит/сек
Каналы : 2 канала
Расположение каналов : Front: L R
Частота : 48,0 КГц
Метод сжатия : С потерями
Размер потока : 164 Мбайт (11%)
Выравнивание : Разделение по промежуткам
Продолжительность промежутка : 42 мс. (1,00 видеокадр)
Время предзагрузки промежутка : 500 мс.



Скачать Большое.приключение.La.gran.aventura.(Роберто.Родригес).[1969.приключения.семейный.DVDRip].[VO]+[Sub]x2.torrent без регистрации
Золото ЗОЛОТАЯ РАЗДАЧА! СКАЧАННОЕ НЕ ЗАСЧИТЫВАЕТСЯ! Золото
Дата: Зарегистрирован   [ Тип: внутренний ] Как тут cкачать?
MAGNET ссылка
MAGNET ссылка


Скачать .torrent

16 KB

Статус: проверено DHT
Скачан: торрент - 41 раз, раздача полностью - 1 раз
Размер: 1,51 GB
Оценка:  - (Голосов: 0)
Поблагодарили: 0
Поделиться ссылкой на эту раздачу с друзьями:
В контактеFacebookОдноклассникиTwitterLivejournalМой МирLiveinternet
 

 
Показать сообщения:    


Вы не можете начинать темы
Вы не можете отвечать на сообщения
Вы не можете редактировать свои сообщения
Вы не можете удалять свои сообщения
Вы не можете голосовать в опросах
Вы не можете прикреплять файлы к сообщениям
Вы можете скачивать файлы