Loading...
Error

Скачать Красная комната / Комната пыток / Red Room (Тони Зариндаст) [1992, триллер, детектив, VHSRip] [AVO (Михаил Иванов)] + [Sub Niderlands] торрент без регистрации

 
Статистика раздачи
Размер:  1,37 GB   |    Скачан:  45 раз
Сидов:  1  [  0 KB/s  ]  
 
Автор Сообщение

sobmaster

[] 

Красная комната / Комната пыток / Red Room

Страна: США
Жанр: Триллер, Детектив + капля эротики
Год выпуска: 1992

Продолжительность: 01:34:53
Перевод: Авторский (одноголосый закадровый) Михаил Иванов
Cубтитры: голландские

Режиссер: Тони Зариндаст / Tony Zarindast

В ролях: Чарлз Черьер /Charles Cherrier/, Мариана Морган /Mariana Morgan/, Джоэл Уайсс /Joel Weiss/, Хэл Шафер /Hal Shafer/, Келли Сабатассо /Kelly Sabatasso/, Фредрик Гартнер /Fredrick Gartner/, Джордж Клайн /George Klein/, Кэрри Биттнер /Carrie Bittner/, Шелли Мишель /Shelley Michelle/, Деннис Браун /Dennis Brown/

Описание: В городе орудует маньяк — серийный убийца. Дело расследует опергруппа, в которую входят несколько полицейских и секретных агентов. Среди них агент-женщина Шерон Сеймур. Происходит ещё одно убийство, и теперь Шерон особо заинтересована в том, чтобы найти маньяка — ведь убита её лучшая подруга.

Доп. информация: За оцифровку кассеты из личной коллекции большое спасибо vladimir3008



Релиз

Сэмпл: https://yadi.sk/i/y7jYgjXUoKdBX

Качество видео: VHSRip
Формат видео: AVI
Видео: 640x480 (1.33:1), 25 fps, XviD build 73 ~1796 kbps avg, 0.23 bit/pixel
Аудио: 48 kHz, MPEG, 2 ch, ~256.00 kbps avg
Формат субтитров: hardsub (неотключаемые)


АНОНСЫ ПОПУЛЯРНЫХ РАЗДАЧ
Красная комната - Red Room [by Edich2].avi
Format : AVI
Format/Info : Audio Video Interleave
File size : 1.37 GiB
Duration : 1h 34mn
Overall bit rate : 2 063 Kbps
Movie name : Красная комната - Red Room [by Edich2]
Director : by Edich2
Writing application : VirtualDubMod 1.5.10.3 | www.virtualdub-fr.org || (build 2550/release)
Comment : RuTracker.org
Video
ID : 0
Format : MPEG-4 Visual
Format profile : Advanced Simple@L5
Format settings, BVOP : 1
Format settings, QPel : No
Format settings, GMC : No warppoints
Format settings, Matrix : Custom
Codec ID : XVID
Codec ID/Hint : XviD
Duration : 1h 34mn
Bit rate : 1 797 Kbps
Width : 640 pixels
Height : 480 pixels
Display aspect ratio : 4:3
Frame rate : 25.000 fps
Color space : YUV
Chroma subsampling : 4:2:0
Bit depth : 8 bits
Scan type : Progressive
Compression mode : Lossy
Bits/(Pixel*Frame) : 0.234
Stream size : 1.19 GiB (87%)
Writing library : XviD 73
Audio
ID : 1
Format : MPEG Audio
Format version : Version 1
Format profile : Layer 2
Codec ID : 50
Duration : 1h 34mn
Bit rate mode : Constant
Bit rate : 256 Kbps
Channel(s) : 2 channels
Sampling rate : 48.0 KHz
Compression mode : Lossy
Stream size : 174 MiB (12%)
Alignment : Aligned on interleaves
Interleave, duration : 40 ms (1.00 video frame)
Interleave, preload duratio : 504 ms



Скачать Красная.комната.Комната.пыток.Red.Room.(Тони.Зариндаст).[1992.триллер.детектив.VHSRip].[AVO.(Михаил.Иванов)].+.[Sub.Niderlands].torrent без регистрации
Золото ЗОЛОТАЯ РАЗДАЧА! СКАЧАННОЕ НЕ ЗАСЧИТЫВАЕТСЯ! Золото
Дата: Зарегистрирован   [ Тип: внутренний ] Как тут cкачать?
MAGNET ссылка
MAGNET ссылка


Скачать .torrent

14 KB

Статус: проверено DHT
Скачан: торрент - 45 раз, раздача полностью - 7 раз
Размер: 1,37 GB
Оценка:  5 (Голосов: 1)
Поблагодарили: 1
Поделиться ссылкой на эту раздачу с друзьями:
В контактеFacebookОдноклассникиTwitterLivejournalМой МирLiveinternet
 

 
Показать сообщения:    


Вы не можете начинать темы
Вы не можете отвечать на сообщения
Вы не можете редактировать свои сообщения
Вы не можете удалять свои сообщения
Вы не можете голосовать в опросах
Вы не можете прикреплять файлы к сообщениям
Вы можете скачивать файлы