Loading...
Error

Скачать Голубые джинсы / Blue Jeans (Юг Бюрен де Розье) [1977, драма, DVDRip] [MVO]+[Sub] торрент без регистрации

 
Статистика раздачи
Размер:  768 MB   |    Скачан:  39 раз
Сидов:  1  [  0 KB/s  ]  
 
Автор Сообщение

Marsianka

[] 

Информация о фильме
Название: Голубые джинсы
Оригинальное название: Du beurre aux Allemands / Blue Jeans
Год выхода: 1977
Жанр: драма
Режиссер: Юг Бюрен де Розье
В ролях: Жиль Буден, Мишель Гибе, Даниэль Вери, Тьери Долон, Жером Кадью, Эрик Ноэль, Эрик Бурсье, Пьер Биде, Пьер Маришаль, Пьер Бонзан, Даина Лаварен, Габриэль Гатан, Жерар Кросе

О фильме:
Трогательная и чувственная история о том, как 13-летнего мальчика-француза отправляют в Англию, чтобы учиться там английскому языку с группой учеников. Джулиен впервые тесно контактирует с девочками и влюбляется в Жанет, но та предпочитает ему парня чуть постарше, Жан-Пьера. Джулиен переживает по этому поводу, но вскоре находит себе новый объект привязанности - Жан-Пьера...



Производство: Франция, Португалия / Chloë Productions, Shoot
Продолжительность: 01:13:27
Перевод: любительский (многоголосый закадровый) [Filija, Uk@R, DI, RichiRich]

Файл
Качество: DVDRip
Формат: MP4
Видео: AVC H264, 628x576@921x576, 25,000 fps, 1133 kbps
Аудио #1: русский, AAC 2.0, 48 kHz, 196 kbps
Аудио #2: французский, AAC 2.0, 48 kHz, 128 kbps
Субтитры: английские внешние, SRT
Общее
Полное имя : Blue.Jeans.1977.DVDRip.mp4
Формат : MPEG-4
Профиль формата : Base Media
Идентификатор кодека : isom
Размер файла : 768 Мбайт
Продолжительность : 1 ч. 13 м.
Режим общего битрейта : Переменный
Общий поток : 1461 Кбит/сек
Дата кодирования : UTC 2016-02-04 17:59:22
Дата пометки : UTC 2016-02-04 17:59:22
Программа кодирования : My MP4Box GUI 0.6.0.6

Видео
Идентификатор : 1
Формат : AVC
Формат/Информация : Advanced Video Codec
Профиль формата : High@L3
Параметр CABAC формата : Да
Параметр ReFrames формата : 4 кадра
Идентификатор кодека : avc1
Идентификатор кодека/Информация : Advanced Video Coding
Продолжительность : 1 ч. 13 м.
Битрейт : 1133 Кбит/сек
Максимальный битрейт : 3327 Кбит/сек
Ширина : 628 пикселей
Высота : 576 пикселей
Соотношение сторон : 16:10
Соотношение сторон в оригинале : 16:10
Режим частоты кадров : Постоянный
Частота кадров : 25,000 кадров/сек
Цветовое пространство : YUV
Субдискретизация насыщенности : 4:2:0
Битовая глубина : 8 бит
Тип развёртки : Прогрессивная
Бит/(Пиксели*Кадры) : 0.125
Размер потока : 595 Мбайт (78%)
Заголовок : BlueJeans.h264
Библиотека кодирования : x264 core 144 r2525 40bb568
Настройки программы : cabac=1 / ref=3 / deblock=1:0:0 / analyse=0x3:0x113 / me=hex / subme=7 / psy=1 / psy_rd=1.00:0.00 / mixed_ref=1 / me_range=16 / chroma_me=1 / trellis=1 / 8x8dct=1 / cqm=0 / deadzone=21,11 / fast_pskip=1 / chroma_qp_offset=-2 / threads=6 / lookahead_threads=1 / sliced_threads=0 / nr=0 / decimate=1 / interlaced=0 / bluray_compat=0 / constrained_intra=0 / bframes=3 / b_pyramid=2 / b_adapt=1 / b_bias=0 / direct=1 / weightb=1 / open_gop=0 / weightp=2 / keyint=250 / keyint_min=25 / scenecut=40 / intra_refresh=0 / rc_lookahead=40 / rc=crf / mbtree=1 / crf=23.0 / qcomp=0.60 / qpmin=0 / qpmax=69 / qpstep=4 / ip_ratio=1.40 / aq=1:1.00
Дата кодирования : UTC 2016-02-04 17:59:22
Дата пометки : UTC 2016-02-04 18:03:16

Аудио #1
Идентификатор : 2
Формат : AAC
Формат/Информация : Advanced Audio Codec
Профиль формата : LC
Идентификатор кодека : 40
Продолжительность : 1 ч. 13 м.
Вид битрейта : Переменный
Битрейт : 196 Кбит/сек
Максимальный битрейт : 201 Кбит/сек
Каналы : 2 канала
Расположение каналов : Front: L R
Частота : 48,0 КГц
Метод сжатия : С потерями
Размер потока : 103 Мбайт (13%)
Заголовок : BlueJeans_rus.aac
Дата кодирования : UTC 2016-02-04 18:02:21
Дата пометки : UTC 2016-02-04 18:03:16

Аудио #2
Идентификатор : 3
Формат : AAC
Формат/Информация : Advanced Audio Codec
Профиль формата : LC
Идентификатор кодека : 40
Продолжительность : 1 ч. 13 м.
Вид битрейта : Переменный
Битрейт : 128 Кбит/сек
Максимальный битрейт : 135 Кбит/сек
Каналы : 2 канала
Расположение каналов : Front: L R
Частота : 48,0 КГц
Метод сжатия : С потерями
Размер потока : 67,2 Мбайт (9%)
Заголовок : BlueJeans_fra.aac
Дата кодирования : UTC 2016-02-04 18:03:00
Дата пометки : UTC 2016-02-04 18:03:16
Релиз от:



Скачать Голубые.джинсы.Blue.Jeans.(Юг.Бюрен.де.Розье).[1977.драма.DVDRip].[MVO]+[Sub].torrent без регистрации
Золото ЗОЛОТАЯ РАЗДАЧА! СКАЧАННОЕ НЕ ЗАСЧИТЫВАЕТСЯ! Золото
Дата: Зарегистрирован   [ Тип: внутренний ] Как тут cкачать?
MAGNET ссылка
MAGNET ссылка


Скачать .torrent

16 KB

Статус: проверено DHT
Скачан: торрент - 39 раз, раздача полностью - 4 раз
Размер: 768 MB
Оценка:  - (Голосов: 0)
Поблагодарили: 1
Поделиться ссылкой на эту раздачу с друзьями:
В контактеFacebookОдноклассникиTwitterLivejournalМой МирLiveinternet
 

 
Показать сообщения:    


Вы не можете начинать темы
Вы не можете отвечать на сообщения
Вы не можете редактировать свои сообщения
Вы не можете удалять свои сообщения
Вы не можете голосовать в опросах
Вы не можете прикреплять файлы к сообщениям
Вы можете скачивать файлы