Loading...
Error

Скачать Мальчик и пираты / The Boy and the Pirates (Берт А. Гордон) [1960, фэнтези, приключения, семейный, DVDRip] [Sub]x2 торрент без регистрации

 
Статистика раздачи
Размер:  1,37 GB   |    Скачан:  33 раза
Сидов:  1  [  0 KB/s  ]  
 
Автор Сообщение

Marsianka

[] 

Информация о фильме
Название: Мальчик и пираты
Оригинальное название: The Boy and the Pirates
Год выхода: 1960
Жанр: фэнтези, приключения, семейный
Режиссер: Берт А. Гордон
В ролях: Чарльз Херберт, Сьюзэн Гордон, Мервин Вай, Пол Гилфойл, Джо Тёркел, Арчи Дункан, Тан Вьенн, Альберт Кавенс, Мики Финн, Морган Джонс, Тимоти Кэри

О фильме:
Мальчик по имени Джимми живёт с родителями на побережье в Массачусетсе. Он далеко не в восторге от современной жизни с её обязанностями перед родителями. Однажды, играя на побережье возле старого судна, Джимми находит старинную флягу и мечтает очутиться в прошлом, когда в море орудовали пираты. Его желание не остаётся неуслышанным. Очнувшись на пиратской шхуне, он понимает, что в этом замешан Абу — джин из старинной фляги.



Производство: США / Bert I. Gordon Productions
Продолжительность: 01:24:09
Перевод: русские субтитры от r123

Файл
Качество: DVDRip
Формат: AVI
Видео: XviD, 720x400 (16:9), 29.970 fps, 2187 kbps
Аудио: английский, MP3 2.0, 48 kHz, 128 kbps
Субтитры: русские, английские внешние, SRT
Общее
Полное имя : The.Boy.and.the.Pirates.1960.DVDRip.avi
Формат : AVI
Формат/Информация : Audio Video Interleave
Размер файла : 1,37 Гбайт
Продолжительность : 1 ч. 24 м.
Общий поток : 2327 Кбит/сек
Программа кодирования : VirtualDubMod 1.5.10.3 | www.virtualdub-fr.org || (build 2550/release)
Библиотека кодирования : VirtualDubMod build 2550/release

Видео
Идентификатор : 0
Формат : MPEG-4 Visual
Профиль формата : Advanced Simple@L5
Параметр BVOP формата : 3
Параметр QPel формата : Нет
Параметр GMC формата : Без точки перехода
Параметр матрицы формата : Default (H.263)
Идентификатор кодека : XVID
Идентификатор кодека/Подсказка : XviD
Продолжительность : 1 ч. 24 м.
Битрейт : 2187 Кбит/сек
Ширина : 720 пикселей
Высота : 400 пикселей
Соотношение сторон : 16:9
Частота кадров : 29,970 кадров/сек
Цветовое пространство : YUV
Субдискретизация насыщенности : 4:2:0
Битовая глубина : 8 бит
Тип развёртки : Прогрессивная
Метод сжатия : С потерями
Бит/(Пиксели*Кадры) : 0.253
Размер потока : 1,29 Гбайт (94%)
Библиотека кодирования : XviD 1.2.1 (UTC 2008-12-04)

Аудио
Идентификатор : 1
Формат : MPEG Audio
Версия формата : Version 1
Профиль формата : Layer 3
Идентификатор кодека : 55
Идентификатор кодека/Подсказка : MP3
Продолжительность : 1 ч. 24 м.
Вид битрейта : Постоянный
Битрейт : 128 Кбит/сек
Каналы : 2 канала
Частота : 48,0 КГц
Метод сжатия : С потерями
Размер потока : 77,0 Мбайт (6%)
Выравнивание : Соединение по промежуткам
Продолжительность промежутка : 33 мс. (1,00 видеокадр)
Время предзагрузки промежутка : 504 мс.
Библиотека кодирования : LAME3.99r
Настройки программы : -m s -V 4 -q 2 -lowpass 17 -b 128
Релиз от:



Скачать Мальчик.и.пираты.The.Boy.and.the.Pirates.(Берт.А.Гордон).[1960.фэнтези.приключения.семейный.DVDRip].[Sub]x2.torrent без регистрации
Золото ЗОЛОТАЯ РАЗДАЧА! СКАЧАННОЕ НЕ ЗАСЧИТЫВАЕТСЯ! Золото
Дата: Зарегистрирован   [ Тип: внутренний ] Как тут cкачать?
MAGNET ссылка
MAGNET ссылка


Скачать .torrent

15 KB

Статус: проверено DHT
Скачан: торрент - 33 раз, раздача полностью - 0 раз
Размер: 1,37 GB
Оценка:  - (Голосов: 0)
Поблагодарили: 1
Поделиться ссылкой на эту раздачу с друзьями:
В контактеFacebookОдноклассникиTwitterLivejournalМой МирLiveinternet
 

 
Показать сообщения:    


Вы не можете начинать темы
Вы не можете отвечать на сообщения
Вы не можете редактировать свои сообщения
Вы не можете удалять свои сообщения
Вы не можете голосовать в опросах
Вы не можете прикреплять файлы к сообщениям
Вы можете скачивать файлы