Loading...
Error

Скачать Мистер Вудкок / Мистер Простофиля / Mr. Woodcock (Крэйг Гиллеспи) [2007, Комедия, DVB] [Open Matte Transfer] [MVO] (Студия "Пифагор") торрент без регистрации

 
Статистика раздачи
Размер:  1,79 GB   |    Скачан:  68 раз
Сидов:  1  [  0 KB/s  ]  
 
Автор Сообщение

leon030982

[] 

Мистер Вудкок / Мистер Простофиля / Mr. Woodcock


Год выпуска: 2007
Страна: США
Жанр: Комедия
Продолжительность: 01:25:51
Перевод: Профессиональный (многоголосый, закадровый) [Студия "Пифагор"]
Cубтитры: нет

Режиссер: Крэйг Гиллеспи

В ролях: Билли Боб Торнтон, Шон Уильям Скотт, Сьюзан Сарандон, Эми Поэлер, Итан Сапли, Мелисса Сейджмиллер


Известный молодой писатель - Джон Фарли возвращается в свой родной город. Там он с большим удивлением понимает, что его мама, которую он сильно любит собирается выйти замуж за его бывшего учителя – мистера Вудкокера. В свое время, этот учитель физкультуры сумел попортить жизни многим ученикам школы, но он с какой то особой ненавистью относился к самому Джону. Теперь наш герой будет стараться расстроить брак и спасти мать от физкультурника- садиста...



Качество видео: DVB
Формат видео: TS
Видео: 720x576 (4:3) @ 786x576, 25.000 fps, AVC, ~2647 Kbps, 0.254 bits/pixel
Аудио: 48.0 KHz, MPEG-1 Audio layer 2, 2 ch, 256 Kbps
Фильм представлен в редком формате "скрытого кашетирования". Прочитать о данном формате можно тут: http://ru.wikipedia.org/wiki/%D0%A1%D0%BA%D1%80%D1%...0%BD%D0%B8%D0%B5
Также качественная озвучка студии "Пифагор" по заказу WB.
General
ID : 1 (0x1)
Complete name : D:\ФИЛЬМЫ\зарелизил\Мистер Вудкок (МВО Пифагор).ts
Format : MPEG-TS
File size : 1.79 GiB
Duration : 1h 23mn
Overall bit rate : 3 057 Kbps
Video
ID : 37 (0x25)
Menu ID : 1 (0x1)
Format : AVC
Format/Info : Advanced Video Codec
Format profile : High@L3.0
Format settings, CABAC : Yes
Format settings, ReFrames : 3 frames
Codec ID : 27
Duration : 1h 23mn
Bit rate : 2 647 Kbps
Width : 720 pixels
Height : 576 pixels
Display aspect ratio : 4:3
Frame rate : 25.000 fps
Standard : Component
Color space : YUV
Chroma subsampling : 4:2:0
Bit depth : 8 bits
Scan type : Interlaced
Scan order : Top Field First
Bits/(Pixel*Frame) : 0.255
Stream size : 1.55 GiB (87%)
Color primaries : BT.470-6 System B, BT.470-6 System G, BT.601-6 625, BT.1358 625, BT.1700 625 PAL, BT.1700 625 SECAM
Transfer characteristics : BT.470-6 System B, BT.470-6 System G
Matrix coefficients : BT.470-6 System B, BT.470-6 System G, BT.601-6 625, BT.1358 625, BT.1700 625 PAL, BT.1700 625 SECAM, IEC 61966-2-4 601
Audio
ID : 32 (0x20)
Menu ID : 1 (0x1)
Format : MPEG Audio
Format version : Version 1
Format profile : Layer 2
Codec ID : 3
Duration : 1h 23mn
Bit rate mode : Constant
Bit rate : 256 Kbps
Channel(s) : 2 channels
Sampling rate : 48.0 KHz
Compression mode : Lossy
Stream size : 154 MiB (8%)
Language : English



Скачать Мистер.Вудкок.Мистер.Простофиля.Mr.Woodcock.(Крэйг.Гиллеспи).[2007.Комедия.DVB].[Open.Matte.Transfer].[MVO].(Студия."Пифагор").torrent без регистрации
Золото ЗОЛОТАЯ РАЗДАЧА! СКАЧАННОЕ НЕ ЗАСЧИТЫВАЕТСЯ! Золото
Дата: Зарегистрирован   [ Тип: внутренний ] Как тут cкачать?
MAGNET ссылка
MAGNET ссылка


Скачать .torrent

18 KB

Статус: проверено DHT
Скачан: торрент - 68 раз, раздача полностью - 7 раз
Размер: 1,79 GB
Оценка:  - (Голосов: 0)
Поблагодарили: 0
Поделиться ссылкой на эту раздачу с друзьями:
В контактеFacebookОдноклассникиTwitterLivejournalМой МирLiveinternet
 

 
Показать сообщения:    


Вы не можете начинать темы
Вы не можете отвечать на сообщения
Вы не можете редактировать свои сообщения
Вы не можете удалять свои сообщения
Вы не можете голосовать в опросах
Вы не можете прикреплять файлы к сообщениям
Вы можете скачивать файлы