Loading...
Error

Скачать Лучше звоните Солу / Better Call Saul (Сезон 02) (Колин Бакси, Адам Бернштейн) [2016, драма, комедия, криминал, WEBRip] [DVO] (Кубик в Кубе) торрент без регистрации

 
Статистика раздачи
Размер:  9,65 GB   |    Скачан:  112 раз
Сидов:  1  [  0 KB/s  ]  
 
Автор Сообщение

leon030982

[] 

Лучше звоните Солу
Better Call Saul


Год выпуска: 2016
Страна: США
Жанр: драма, комедия, криминал
Продолжительность: 00:53:00
Перевод: Профессиональный (двухголосый) [Кубик в Кубе]
Субтитры: отсутствуют

Режиссер: Колин Бакси / Colin Bucksey, Адам Бернштейн / Adam Bernstein, Винс Гиллиган / Vince Gilligan

В ролях:
Боб Оденкёрк (Saul Goodman), Ри Сихорн (Kim Wexler), Патрик Фабиан (Howard Hamlin), Майкл МакКин (Chuck McGill), Майкл Мэндо (Nacho Varga), Джонатан Бэнкс (Mike Ehrmantraut), Ген Н. Чавес (HHM Attorney), Alan Humphrey (Lawyer), Джил Мюррэй (HHM Attorney), Brian Barela (HHM Staff), Тим Чайлдресс (HHM Attorney), Хавьер Грайеда (Juan Bolsa)


История об испытаниях и невзгодах, которые приходится преодолеть Солу Гудману, адвокату по уголовным делам, в тот период, когда он пытается открыть свою собственную адвокатскую контору в Альбукерке, штат Нью-Мексико.



Рип: ЛП
Работа со звуком: messafan
Перевод: Инга Бу

Качество: WEBRip
Контейнер: AVI
Видео: 720x400 (1.80:1), 23.976 fps, XviD build 64 ~1999 kbps avg, 0.23 bit/pixel
Аудио: 48 kHz, AC3, 6 ch, 384 Кбит/с [DVO]
Аудио: 48 kHz, AC3, 6 ch, 384 Кбит/с [ENG]

Торент обновлен! добавлены 9-10-я серии

Код:

General
Complete name                            : E:\Better Call Saul Season 2 CasStudio.TV\Better.Call.Saul.s02e01.rus.eng.CasStudio.TV.avi
Format                                   : AVI
Format/Info                              : Audio Video Interleave
File size                                : 938 MiB
Duration                                 : 47mn 8s
Overall bit rate                         : 2 782 Kbps
Writing application                      : VirtualDubMod 1.5.10.2 (build 2540/release)
Writing library                          : VirtualDubMod build 2540/release

Video
ID                                       : 0
Format                                   : MPEG-4 Visual
Format profile                           : Advanced Simple@L5
Format settings, BVOP                    : 1
Format settings, QPel                    : No
Format settings, GMC                     : No warppoints
Format settings, Matrix                  : Default (MPEG)
Codec ID                                 : XVID
Codec ID/Hint                            : XviD
Duration                                 : 47mn 8s
Bit rate                                 : 1 893 Kbps
Width                                    : 720 pixels
Height                                   : 400 pixels
Display aspect ratio                     : 16:9
Frame rate                               : 23.976 fps
Color space                              : YUV
Chroma subsampling                       : 4:2:0
Bit depth                                : 8 bits
Scan type                                : Progressive
Compression mode                         : Lossy
Bits/(Pixel*Frame)                       : 0.274
Stream size                              : 638 MiB (68%)
Writing library                          : XviD 73

Audio #1
ID                                       : 1
Format                                   : AC-3
Format/Info                              : Audio Coding 3
Mode extension                           : CM (complete main)
Format settings, Endianness              : Big
Codec ID                                 : 2000
Duration                                 : 47mn 8s
Bit rate mode                            : Constant
Bit rate                                 : 384 Kbps
Channel(s)                               : 6 channels
Channel positions                        : Front: L C R, Side: L R, LFE
Sampling rate                            : 48.0 KHz
Compression mode                         : Lossy
Stream size                              : 129 MiB (14%)
Alignment                                : Split accross interleaves

Audio #2
ID                                       : 2
Format                                   : AC-3
Format/Info                              : Audio Coding 3
Mode extension                           : CM (complete main)
Format settings, Endianness              : Big
Codec ID                                 : 2000
Duration                                 : 47mn 8s
Bit rate mode                            : Constant
Bit rate                                 : 384 Kbps
Channel(s)                               : 6 channels
Channel positions                        : Front: L C R, Side: L R, LFE
Sampling rate                            : 48.0 KHz
Compression mode                         : Lossy
Stream size                              : 129 MiB (14%)
Alignment                                : Split accross interleaves

Внимание! Раздача ведётся путём добавления новых серий; при каждом добавлении создаётся новый торрент. Чтобы начать докачку новой серии, пользователям необходимо сделать следующее: (1) остановить скачивание, (2) удалить старый торрент у себя из клиента (старые серии удалять не надо), (3) скачать новый торрент и запустить его у себя в клиенте вместо старого, при этом указать клиенту путь в старую папку куда и должно происходить скачивание новых серий.
Ваш клиент при этом должен произвести хеширование (проверку) старой папки (если не производит сам - помогите ему сделать это), и будет докачивать только те серии которых у вас ещё нет. Старые серии при этом не удаляются, а продолжают раздаваться!
Eсли вы уже удалили старые серии, то предотвратить повторную закачку старых серий можно, отжав галочку в соответствующих местах при запуске нового торрента.
"]



Скачать Лучше.звоните.Солу.Better.Call.Saul.(Сезон.02).(Колин.Бакси.Адам.Бернштейн).[2016.драма.комедия.криминал.WEBRip].[DVO].(Кубик.в.Кубе).torrent без регистрации
Золото ЗОЛОТАЯ РАЗДАЧА! СКАЧАННОЕ НЕ ЗАСЧИТЫВАЕТСЯ! Золото
Дата: Зарегистрирован   [ Тип: внутренний ] Как тут cкачать?
MAGNET ссылка
MAGNET ссылка


Скачать .torrent

26 KB

Статус: проверено DHT
Скачан: торрент - 112 раз, раздача полностью - 4 раз
Размер: 9,65 GB
Оценка:  5 (Голосов: 1)
Поблагодарили: 1
Поделиться ссылкой на эту раздачу с друзьями:
В контактеFacebookОдноклассникиTwitterLivejournalМой МирLiveinternet
 

 

leon030982

[] 

Цитата:

Заменен перевод, добавлены 1-8-я серии
 
Показать сообщения:    


Вы не можете начинать темы
Вы не можете отвечать на сообщения
Вы не можете редактировать свои сообщения
Вы не можете удалять свои сообщения
Вы не можете голосовать в опросах
Вы не можете прикреплять файлы к сообщениям
Вы можете скачивать файлы