Loading...
Error

Скачать Винил / Vinyl (сезон 01) (Аллен Коултер и др.) [2016, драма, музыка, HDTVRip-AVC] [MVO (Amedia)]+[Eng]+[Sub Rus, Eng] торрент без регистрации

 
Статистика раздачи
Размер:  11,79 GB   |    Скачан:  166 раз
Сидов:  2  [  52 KB/s  ]  
 
Автор Сообщение

МихаНЕзатор

[] 

Информация о фильме
Название: Винил
Оригинальное название: Vinyl
Год выхода: 2016
Жанр: Драма, музыка
Режиссер: Аллен Култер, Джон С. Бейрд, С.Дж. Кларксон

В ролях: Бобби Каннавале, Оливия Уайлд, Рэй Романо, Ато Эссонда, Макс Казелла, П.Дж. Бирн, Дж.С. МакКензи, Биргитта Йорт Сёренсен, Джуно Темпл, Джек Куэйд

О фильме: Самая громкая премьера 2016 года от мэтра кино Мартина Скорсезе, кумира миллионов Мика Джаггера и сценариста «Подпольной империи» и «Сопрано» Терренса Уинтера. Нью-Йорк, 70-е, харизматичный и изворотливый глава собственного звукозаписывающего лэйбла «American Century» в сложный период завершения сделки по продаже компании немцам из «Polygram». На экране в сочных цветах наркотических 70-х личностный кризис главного героя. Типичная для Скорсезе подача: яркая картинка (в духе «Казино», «Волк с Уолл-Стрит»), фирменный плотный монтаж и жесткие натуралистичные сцены. Дорожка кокаина и глоток виски, как необходимые атрибуты любого диалога в плывущем голубом сигаретном дыму. Оргии пресытившихся чокнутых дельцов, обдолбанные глэм и панк рокеры, фриковатые продюсеры, закулисье концертов, красивые телки и т.д. в циничном аттракционе под аккомпанемент блюза, диско, панка и хард-рока...



Страна: США (HBO)
Продолжительность: 1 x ~ 01:48:00
Перевод: Профессиональный (многоголосый, закадровый) - Amedia

Файл
Формат: MKV
Кодек: H.264
Качество: HDTVRip (576p)
Видео: 1024x576 at 25 fps, x264@L3.1, crf, ~2105 kbps
Звук:
Аудио#1: Русский AC3, 48 kHz, 3/2 (L,C,R,l,r) + LFE ch, 16-bit, ~384 kbps
Аудио#2: Английский AC3, 48 kHz, 3/2 (L,C,R,l,r) + LFE ch, 16-bit, ~384 kbps
Субтитры: Русские, английские

АНОНСЫ ПОПУЛЯРНЫХ РАЗДАЧ


Торрент обновлён, добавлена 10-я серия!

01 - Pilot [Пилот]
02 - Yesterday Once More [Вчера еще раз]
03 - Whispered Secrets [Секреты шепотом]
04 - The Racket [Ракетка]
05 - He in Racist Fire [Он в огне расистов]
06 - Cyclone [Циклон]
07 - The King and I [Король и я]
08 - E.A.B. [E.A.B.]
09 - Rock and Roll Queen [Королева Рок-н-ролла]
10 - Alibi [Алиби]

General
Unique ID : 217852121035858561971226103636436235874 (0xA3E4CAD67981CFAABDEBB4698B20B662)
Complete name : Vinyl_s01.e01_2016_x264.HDTV.576p_Rus.Eng.mkv
Format : Matroska
Format version : Version 4 / Version 2
File size : 2.17 GiB
Duration : 1h 48mn
Overall bit rate : 2 875 Kbps
Movie name : ВИНИЛ -01-01- (2016) [AVC] Rus+Eng
Encoded date : UTC 2016-02-15 21:10:36
Writing application : mkvmerge v8.8.0 ('Wind at my back') 64bit
Writing library : libebml v1.3.3 + libmatroska v1.4.4
Attachements : Cover.jpg

Video
ID : 1
Format : AVC
Format/Info : Advanced Video Codec
Format profile : High@L3.1
Format settings, CABAC : Yes
Format settings, ReFrames : 5 frames
Codec ID : V_MPEG4/ISO/AVC
Duration : 1h 48mn
Bit rate : 2 105 Kbps
Width : 1 024 pixels
Height : 576 pixels
Display aspect ratio : 16:9
Frame rate mode : Constant
Frame rate : 25.000 fps
Color space : YUV
Chroma subsampling : 4:2:0
Bit depth : 8 bits
Scan type : Progressive
Bits/(Pixel*Frame) : 0.143
Stream size : 1.59 GiB (73%)
Title : Vinyl_s01.e01_2016_x264.HDTV.576p_Rus.Eng
Writing library : x264 core 148 r2665kMod a01e339
Encoding settings : cabac=1 / ref=6 / deblock=1:0:0 / analyse=0x3:0x133 / me=umh / subme=10 / psy=1 / fade_compensate=0.00 / psy_rd=1.00:0.00 / mixed_ref=1 / me_range=24 / chroma_me=1 / trellis=2 / 8x8dct=1 / cqm=0 / deadzone=21,11 / fast_pskip=1 / chroma_qp_offset=-2 / threads=7 / lookahead_threads=1 / sliced_threads=0 / nr=0 / decimate=1 / interlaced=0 / bluray_compat=1 / constrained_intra=0 / fgo=0 / bframes=3 / b_pyramid=1 / b_adapt=2 / b_bias=0 / direct=3 / weightb=1 / open_gop=0 / weightp=1 / keyint=250 / keyint_min=1 / scenecut=40 / intra_refresh=0 / rc_lookahead=60 / rc=2pass / mbtree=1 / bitrate=2105 / ratetol=1.0 / qcomp=0.60 / qpmin=0 / qpmax=69 / qpstep=4 / cplxblur=20.0 / qblur=0.5 / ip_ratio=1.40 / aq=1:1.00
Language : Russian
Default : Yes
Forced : No

Audio #1
ID : 2
Format : AC-3
Format/Info : Audio Coding 3
Mode extension : CM (complete main)
Format settings, Endianness : Big
Codec ID : A_AC3
Duration : 1h 48mn
Bit rate mode : Constant
Bit rate : 384 Kbps
Channel(s) : 6 channels
Channel positions : Front: L C R, Side: L R, LFE
Sampling rate : 48.0 KHz
Frame rate : 31.250 fps (1536 spf)
Compression mode : Lossy
Stream size : 297 MiB (13%)
Title : Rus MVO - AC3 5.1 48kHz@384kbps
Language : Russian
Default : Yes
Forced : No

Audio #2
ID : 3
Format : AC-3
Format/Info : Audio Coding 3
Mode extension : CM (complete main)
Format settings, Endianness : Big
Codec ID : A_AC3
Duration : 1h 48mn
Bit rate mode : Constant
Bit rate : 384 Kbps
Channel(s) : 6 channels
Channel positions : Front: L C R, Side: L R, LFE
Sampling rate : 48.0 KHz
Frame rate : 31.250 fps (1536 spf)
Compression mode : Lossy
Stream size : 297 MiB (13%)
Title : Original - AC3 5.1 48kHz@384kbps
Language : English
Default : No
Forced : No

Text #1
ID : 4
Format : UTF-8
Codec ID : S_TEXT/UTF8
Codec ID/Info : UTF-8 Plain Text
Duration : 1h 45mn
Bit rate : 92 bps
Count of elements : 1504
Stream size : 71.5 KiB (0%)
Language : Russian
Default : No
Forced : No

Text #2
ID : 5
Format : UTF-8
Codec ID : S_TEXT/UTF8
Codec ID/Info : UTF-8 Plain Text
Duration : 1h 48mn
Bit rate : 90 bps
Count of elements : 2110
Stream size : 71.7 KiB (0%)
Title : full
Language : English
Default : No
Forced : No



Скачать Винил.Vinyl.(сезон.01).(Аллен.Коултер.и.др.).[2016.драма.музыка.HDTVRip-AVC].[MVO.(Amedia)]+[Eng]+[Sub.Rus.Eng].torrent без регистрации
Золото ЗОЛОТАЯ РАЗДАЧА! СКАЧАННОЕ НЕ ЗАСЧИТЫВАЕТСЯ! Золото
Дата: Зарегистрирован   [ Тип: внутренний ] Как тут cкачать?
MAGNET ссылка
MAGNET ссылка


Скачать .torrent

61 KB

Статус: проверено DHT
Скачан: торрент - 166 раз, раздача полностью - 67 раз
Размер: 11,79 GB
Оценка:  - (Голосов: 0)
Поблагодарили: 2
Поделиться ссылкой на эту раздачу с друзьями:
В контактеFacebookОдноклассникиTwitterLivejournalМой МирLiveinternet
 

 
Показать сообщения:    


Вы не можете начинать темы
Вы не можете отвечать на сообщения
Вы не можете редактировать свои сообщения
Вы не можете удалять свои сообщения
Вы не можете голосовать в опросах
Вы не можете прикреплять файлы к сообщениям
Вы можете скачивать файлы