Loading...
Error

Скачать Однажды в августе / Mitte Ende August (Себастьян Шиппер) [2009, драма, DVDRip-AVC] [MVO]+[Sub]x2 торрент без регистрации

 
Статистика раздачи
Размер:  1,49 GB   |    Скачан:  55 раз
Сидов:  1  [  0 KB/s  ]  
 
Автор Сообщение

Marsianka

[] 

Информация о фильме
Название: Однажды в августе
Оригинальное название: Mitte Ende August
Год выхода: 2009
Жанр: драма
Режиссер: Себастьян Шиппер / Sebastian Schipper
В ролях: Мари Боймер (Ханна), Милан Пешель (Томас), Андре Хеннике (Фридрих), Анна Брюггеманн (Августина), Агнесса Зелтыня (Галина Петрова), Герт Фосс (Бо, отец Ханны)

О фильме:
Купив загородный дом, Томас и Ханна чувствуют себя счастливыми. Есть время сделать ремонт, насладиться обществом друг друга. Но семейная идиллия превращается в хаос, когда неожиданно приезжает старший брат Томаса, а за ним и близкие Ханны - ее крестница и отец с подружкой...


Страна: Германия
Студия: Film1, Norddeutscher Rundfunk (NDR), Arte
Продолжительность: 01:28:11.895
Перевод: Профессиональный (многоголосый закадровый) студия "Акцент-Про" по заказу ГТРК "Культура"

Файл
Кодек: h.264
Качество: DVDRip-AVC Исходник R2
Видео: 712x552 (1.85:1) @ 1013x552, 25.000 fps, AVC, ~1807 Kbps, 0.184 bits/pixel

Русский, 48.0 KHz, AC3, 2 ch, 160 Kbps
Немецкий, 48.0 KHz, AC3, 6 ch, 448 Kbps
Субтитры:
Немецкие, VobSub
Английские, VobSub
General
Unique ID : 194976277861051586075569659326224947848 (0x92AF10B0CD2DFAC2BFD6529BD62C5A88)
Complete name : I:FilmsOdnazhdy_v_avguste.2009.DVDRip-AVC.mkv
Format : Matroska
Format version : Version 4 / Version 2
File size : 1.49 GiB
Duration : 1h 28mn
Overall bit rate : 2 418 Kbps
Encoded date : UTC 2015-12-13 18:17:32
Writing application : mkvmerge v8.6.1 ('Flying') 64bit
Writing library : libebml v1.3.3 + libmatroska v1.4.4
DURATION : 01:26:11.775000000
NUMBER_OF_FRAMES : 624
NUMBER_OF_BYTES : 856745
_STATISTICS_WRITING_APP : mkvmerge v8.6.1 ('Flying') 64bit
_STATISTICS_WRITING_DATE_UTC : 2015-12-13 18:17:32
_STATISTICS_TAGS : BPS DURATION NUMBER_OF_FRAMES NUMBER_OF_BYTES

Video
ID : 1
Format : AVC
Format/Info : Advanced Video Codec
Format profile : High@L4.1
Format settings, CABAC : Yes
Format settings, ReFrames : 11 frames
Codec ID : V_MPEG4/ISO/AVC
Duration : 1h 28mn
Bit rate : 1 807 Kbps
Width : 712 pixels
Height : 552 pixels
Display aspect ratio : 1.85:1
Frame rate mode : Constant
Frame rate : 25.000 fps
Color space : YUV
Chroma subsampling : 4:2:0
Bit depth : 8 bits
Scan type : Progressive
Bits/(Pixel*Frame) : 0.184
Stream size : 1.09 GiB (73%)
Writing library : x264 core 148 r2638 7599210
Encoding settings : cabac=1 / ref=11 / deblock=1:0:0 / analyse=0x3:0x133 / me=umh / subme=11 / psy=1 / psy_rd=1.10:0.15 / mixed_ref=1 / me_range=48 / chroma_me=1 / trellis=2 / 8x8dct=1 / cqm=0 / deadzone=21,11 / fast_pskip=0 / chroma_qp_offset=-3 / threads=8 / lookahead_threads=1 / sliced_threads=0 / nr=0 / decimate=0 / interlaced=0 / bluray_compat=0 / constrained_intra=0 / bframes=9 / b_pyramid=2 / b_adapt=2 / b_bias=0 / direct=3 / weightb=1 / open_gop=0 / weightp=2 / keyint=250 / keyint_min=25 / scenecut=40 / intra_refresh=0 / rc_lookahead=60 / rc=2pass / mbtree=0 / bitrate=1807 / ratetol=1.0 / qcomp=0.60 / qpmin=0 / qpmax=69 / qpstep=4 / cplxblur=20.0 / qblur=0.5 / vbv_maxrate=40000 / vbv_bufsize=50000 / nal_hrd=none / filler=0 / ip_ratio=1.40 / pb_ratio=1.30 / aq=1:1.00
Default : No
Forced : No
Color range : Limited
Matrix coefficients : BT.601

Audio #1
ID : 2
Format : AC-3
Format/Info : Audio Coding 3
Mode extension : CM (complete main)
Format settings, Endianness : Big
Codec ID : A_AC3
Duration : 1h 28mn
Bit rate mode : Constant
Bit rate : 160 Kbps
Channel(s) : 2 channels
Channel positions : Front: L R
Sampling rate : 48.0 KHz
Compression mode : Lossy
Stream size : 101 MiB (7%)
Language : Russian
Default : Yes
Forced : No

Audio #2
ID : 3
Format : AC-3
Format/Info : Audio Coding 3
Mode extension : CM (complete main)
Format settings, Endianness : Big
Codec ID : A_AC3
Duration : 1h 28mn
Bit rate mode : Constant
Bit rate : 448 Kbps
Channel(s) : 6 channels
Channel positions : Front: L C R, Side: L R, LFE
Sampling rate : 48.0 KHz
Compression mode : Lossy
Stream size : 283 MiB (19%)
Language : German
Default : No
Forced : No

Text #1
ID : 4
Format : VobSub
Muxing mode : zlib
Codec ID : S_VOBSUB
Codec ID/Info : Picture based subtitle format used on DVDs
Language : German
Default : No
Forced : No

Text #2
ID : 5
Format : VobSub
Muxing mode : zlib
Codec ID : S_VOBSUB
Codec ID/Info : Picture based subtitle format used on DVDs
Language : English
Default : No
Forced : No

Menu
00:00:00.000 : en:Chapter 01
00:09:34.840 : en:Chapter 02
00:19:35.240 : en:Chapter 03
00:29:38.560 : en:Chapter 04
00:40:19.280 : en:Chapter 05
00:50:10.320 : en:Chapter 06
00:59:33.680 : en:Chapter 07
01:09:48.960 : en:Chapter 08
01:19:41.720 : en:Chapter 09
frame I:636 Avg QP:15.25 size: 53511
frame P:26780 Avg QP:18.10 size: 20166
frame B:104871 Avg QP:19.79 size: 5914
Релиз от: Temperest



Скачать Однажды.в.августе.Mitte.Ende.August.(Себастьян.Шиппер).[2009.драма.DVDRip-AVC].[MVO]+[Sub]x2.torrent без регистрации
Золото ЗОЛОТАЯ РАЗДАЧА! СКАЧАННОЕ НЕ ЗАСЧИТЫВАЕТСЯ! Золото
Дата: Зарегистрирован   [ Тип: внутренний ] Как тут cкачать?
MAGNET ссылка
MAGNET ссылка


Скачать .torrent

16 KB

Статус: проверено DHT
Скачан: торрент - 55 раз, раздача полностью - 0 раз
Размер: 1,49 GB
Оценка:  - (Голосов: 0)
Поблагодарили: 0
Поделиться ссылкой на эту раздачу с друзьями:
В контактеFacebookОдноклассникиTwitterLivejournalМой МирLiveinternet
 

 
Показать сообщения:    


Вы не можете начинать темы
Вы не можете отвечать на сообщения
Вы не можете редактировать свои сообщения
Вы не можете удалять свои сообщения
Вы не можете голосовать в опросах
Вы не можете прикреплять файлы к сообщениям
Вы можете скачивать файлы