Loading...
Error

Скачать Лучше звоните Солу / Better Call Saul (Сезон 02) (Адам Бернштейн, Лариса Кондрацки, Томас Шнауз) [2016, Драма, WEBRip] [1080p] [MVO] (Кравец-рекордс) + [Orig] + [Subs] (Eng, Rus) торрент без регистрации

 
Статистика раздачи
Размер:  22,05 GB   |    Скачан:  74 раза
Сидов:  1  [  0 KB/s  ]  
 
Автор Сообщение

leon030982

[] 

Лучше звоните Солу / Better Call Saul


Год выпуска: 2016
Страна: США
Жанр: Драма
Продолжительность: ~00:47:00 [серия]
Перевод: Профессиональный (многоголосый закадровый) Кравец-рекордс
Субтитры: Русские (Netflix), Русские (Amedia), Английские, Английские (СС)

Режиссёр: Адам Бернштейн, Лариса Кондрацки, Томас Шнауз

В ролях: Боб Оденкёрк, Джонатан Бэнкс, Ри Сихорн, Майкл МакКин, Патрик Фабиан, Майкл Мэндо, Стив Ларесэ, Джули Энн Эмери, Керри Кондон, Джереми Шамос


История об испытаниях и невзгодах, которые приходится преодолеть Солу Гудману, адвокату по уголовным делам, в тот период, когда он пытается открыть свою собственную адвокатскую контору в Альбукерке, штат Нью-Мексико.


Релиз: CasStudio

Качество: WEBRip 1080p
Контейнер: MKV
Видео: AVC (x264) | 1920x1080p | 23.976 fps | ~7558 kbps
Аудио 1: AC3 | 48 KHz | 5.1 (Front: L C R Side: L R) + LFE | ~384 kbps [RUS] - Kravec Records
Аудио 2: AC3 | 48 KHz | 5.1 (Front: L C R Side: L R) + LFE | ~384 kbps [ENG] - Original

Торент обновлен! добавлена 10-я серии!
Общее
Уникальный идентификатор : 207112563941998784984445515296854863112 (0x9BD06DCAC86AAAC9B3102D0FB3696D08)
Полное имя : E:\VIDEOS\TV SHOWS\NETFLIX\BCS\Better.Call.Saul.S02.1080p.WEBRip.DD5.1.x264-CasStudio\Better.Call.Saul.S02E01.1080p.WEBRip.DD5.1.x264-CasStudio.mkv
Формат : Matroska
Версия формата : Version 4 / Version 2
Размер файла : 2,80 Гбайт
Продолжительность : 47 м.
Общий поток : 8495 Кбит/сек
Название фильма : Better.Call.Saul.S02E01.1080p.WEBRip.DD5.1.x264-CasStudio
Дата кодирования : UTC 2016-02-16 12:21:25
Программа кодирования : mkvmerge v8.8.0 ('Wind at my back') 64bit
Библиотека кодирования : libebml v1.3.3 + libmatroska v1.4.4
Обложка : Yes
Attachments : Cover

Видео
Идентификатор : 1
Формат : AVC
Формат/Информация : Advanced Video Codec
Профиль формата : [url=mailto:High@L4.1]High@L4.1[/url]
Параметр CABAC формата : Да
Параметр ReFrames формата : 4 кадра
Идентификатор кодека : V_MPEG4/ISO/AVC
Продолжительность : 47 м.
Битрейт : 7723 Кбит/сек
Ширина : 1920 пикселей
Высота : 1080 пикселей
Соотношение сторон : 16:9
Режим частоты кадров : Постоянный
Частота кадров : 23,976 (24000/1001) кадра/сек
Цветовое пространство : YUV
Субдискретизация насыщенности : 4:2:0
Битовая глубина : 8 бит
Тип развёртки : Прогрессивная
Бит/(Пиксели*Кадры) : 0.155
Размер потока : 2,54 Гбайт (91%)
Заголовок : Netflix
Библиотека кодирования : x264 core 148 r2665 a01e339
Настройки программы : cabac=1 / ref=4 / deblock=1:-3:-3 / analyse=0x3:0x133 / me=umh / subme=10 / psy=1 / psy_rd=1.00:0.00 / mixed_ref=1 / me_range=36 / chroma_me=1 / trellis=2 / 8x8dct=1 / cqm=0 / deadzone=6,6 / fast_pskip=0 / chroma_qp_offset=-2 / threads=12 / lookahead_threads=3 / sliced_threads=0 / nr=0 / decimate=0 / interlaced=0 / bluray_compat=0 / constrained_intra=0 / bframes=10 / b_pyramid=2 / b_adapt=2 / b_bias=0 / direct=3 / weightb=1 / open_gop=0 / weightp=2 / keyint=250 / keyint_min=23 / scenecut=40 / intra_refresh=0 / rc=crf / mbtree=0 / crf=17.0 / qcomp=0.80 / qpmin=0 / qpmax=69 / qpstep=4 / ip_ratio=1.10 / pb_ratio=1.10 / aq=3:0.70
Язык : English
Default : Да
Forced : Нет
Цветовой диапазон : Limited
Коэффициенты матрицы : BT.709

Аудио #1
Идентификатор : 2
Формат : AC-3
Формат/Информация : Audio Coding 3
Расширение режима : CM (complete main)
Параметр Endianness формата : Big
Идентификатор кодека : A_AC3
Продолжительность : 47 м.
Вид битрейта : Постоянный
Битрейт : 384 Кбит/сек
Каналы : 6 каналов
Расположение каналов : Front: L C R, Side: L R, LFE
Частота : 48,0 КГц
Частота кадров : 31,250 кадров/сек (1536 spf)
Метод сжатия : С потерями
Размер потока : 130 Мбайт (5%)
Заголовок : DD 5.1 @ 384 Kbps - Kravec Records
Язык : Russian
Default : Да
Forced : Нет

Аудио #2
Идентификатор : 3
Формат : AC-3
Формат/Информация : Audio Coding 3
Расширение режима : CM (complete main)
Параметр Endianness формата : Big
Идентификатор кодека : A_AC3
Продолжительность : 47 м.
Вид битрейта : Постоянный
Битрейт : 384 Кбит/сек
Каналы : 6 каналов
Расположение каналов : Front: L C R, Side: L R, LFE
Частота : 48,0 КГц
Частота кадров : 31,250 кадров/сек (1536 spf)
Метод сжатия : С потерями
Размер потока : 130 Мбайт (5%)
Заголовок : DD 5.1 @ 384 Kbps - Original
Язык : English
Default : Нет
Forced : Нет

Текст #1
Идентификатор : 4
Формат : UTF-8
Идентификатор кодека : S_TEXT/UTF8
Идентификатор кодека/Информация : UTF-8 Plain Text
Продолжительность : 45 м.
Битрейт : 106 бит/сек
Count of elements : 571
Размер потока : 35,2 Кбайт (0%)
Заголовок : Full - Netflix
Язык : Russian
Default : Нет
Forced : Нет

Текст #2
Идентификатор : 5
Формат : UTF-8
Идентификатор кодека : S_TEXT/UTF8
Идентификатор кодека/Информация : UTF-8 Plain Text
Продолжительность : 45 м.
Битрейт : 92 бит/сек
Count of elements : 689
Размер потока : 30,8 Кбайт (0%)
Заголовок : Full - Amedia
Язык : Russian
Default : Нет
Forced : Нет

Текст #3
Идентификатор : 6
Формат : UTF-8
Идентификатор кодека : S_TEXT/UTF8
Идентификатор кодека/Информация : UTF-8 Plain Text
Продолжительность : 43 м.
Битрейт : 65 бит/сек
Count of elements : 555
Размер потока : 20,7 Кбайт (0%)
Язык : English
Default : Нет
Forced : Нет

Текст #4
Идентификатор : 7
Формат : UTF-8
Идентификатор кодека : S_TEXT/UTF8
Идентификатор кодека/Информация : UTF-8 Plain Text
Продолжительность : 46 м.
Битрейт : 65 бит/сек
Count of elements : 623
Размер потока : 22,3 Кбайт (0%)
Заголовок : СС
Язык : English
Default : Нет
Forced : Нет
Внимание! Раздача ведётся путём добавления новых серий; при каждом добавлении создаётся новый торрент. Чтобы начать докачку новой серии, пользователям необходимо сделать следующее:
(1) остановить скачивание,
(2) удалить старый торрент у себя из клиента (старые серии удалять не надо),
(3) скачать новый торрент и запустить его у себя в клиенте вместо старого, при этом указать клиенту путь в старую папку куда и должно происходить скачивание новых серий.
Ваш клиент при этом должен произвести хеширование (проверку) старой папки (если не производит сам - помогите ему сделать это), и будет докачивать только те серии которых у вас ещё нет. Старые серии при этом не удаляются, а продолжают раздаваться!
Eсли вы уже удалили старые серии, то предотвратить повторную закачку старых серий можно, отжав галочку в соответствующих местах при запуске нового торрента. По возможности, желательно не удалять старые серии как можно дольше чтобы релизёр не столько продолжал раздавать старые серии, а смог сконцентрироваться на новых.



Скачать Лучше.звоните.Солу.Better.Call.Saul.(Сезон.02).(Адам.Бернштейн.Лариса.Кондрацки.Томас.Шнауз).[2016.Драма.WEBRip].[1080p].[MVO].(Кравец-рекордс).+.[Orig].+.[Subs].(Eng.Rus).torrent без регистрации
Золото ЗОЛОТАЯ РАЗДАЧА! СКАЧАННОЕ НЕ ЗАСЧИТЫВАЕТСЯ! Золото
Дата: Зарегистрирован   [ Тип: внутренний ] Как тут cкачать?
MAGNET ссылка
MAGNET ссылка


Скачать .torrent

112 KB

Статус: проверено DHT
Скачан: торрент - 74 раз, раздача полностью - 2 раз
Размер: 22,05 GB
Оценка:  5 (Голосов: 2)
Поблагодарили: 4
Поделиться ссылкой на эту раздачу с друзьями:
В контактеFacebookОдноклассникиTwitterLivejournalМой МирLiveinternet
 

 

jouns

[] 

Пасиба!
 

leon030982

[] 

Код:

добавлены 2-9-я серии!
 
Показать сообщения:    


Вы не можете начинать темы
Вы не можете отвечать на сообщения
Вы не можете редактировать свои сообщения
Вы не можете удалять свои сообщения
Вы не можете голосовать в опросах
Вы не можете прикреплять файлы к сообщениям
Вы можете скачивать файлы