Loading...
Error

Скачать Волшебники / The Magicians (Сезон 1, Серии 1-13 из 13) (Скотт Смит, Джен Элиасберг) [2016, Ужасы, фэнтези, драма, детектив , WEB-DLRip 1080p] [DD5.1] [MVO] [LostFilm ] торрент без регистрации

 
Статистика раздачи
Размер:  25,7 GB   |    Скачан:  102 раза

Полного источника не было: 27 минут

 
Автор Сообщение

Nikolai.Baranov

[] 





Волшебники / The Magicians Сезон 1, Серии 1-13 из 13




Год выпуска: 2016
Выпущено: США , Groundswell Productions, NBC Universal Television, Universal Cable Productions
Жанр: Ужасы, фэнтези, драма, детектив
Продолжительность: 00:51:00
Сезон: 1
Серии: 1-13
Количество серий в сезоне: 13

Озвучка 1:Многоголосое профессиональное закадровое озвучание - LostFilm

Озвучка 2: Профессиональный многоголосый - Английский - Оригинал

Субтитры: НЕТ

Официальный сайт



Режиссер: Скотт Смит, Джен Элиасберг, Джеймс Л. Конуэй, Гай Норман Би, Майк Кэхилл, Джон Скотт, Билл Иглз

Сценаристы:
Генри Алонсо Майерс, Джон МакНамара, Дэвид Рид, Сера Гэмбл, Леа Фонг, Лев Гроссман, Майк Мур

В ролях: Джейсон Ральф (Квентин Колдуотер), Стелла Маив (Джулия Уикер), Оливия Тейлор Дадли (Элис Куин), Хейл Эйплмен (Элиот Во), Арджун Гупта (Пенни), Саммер Бишил (Марго Хэнсон)


«Волшебники» — телевизионная адаптация популярной книжной трилогии Льва Гроссмана о студентах секретного университета магии и колдовства Брейкбиллс. Литературный первоисточник вошел в список бестселлеров The New York Times и заслужил сравнение с такой классикой жанра фэнтези, как «Хроники Нарнии» и серия романов о Гарри Поттере. Партнером канала Syfy в работе над сериалом стал номинант на премию «Оскар» Майкл Лондон («Иллюзионист»), а пост шоураннера «Волшебников» заняла Сера Гэмбл («Сверхъестественное»/Supernatural). Мрачная и чарующая атмосфера мира магии, харизматичные герои и лихо закрученный сюжет придутся по вкусу как поклонникам творчества Гроссмана, так и любителям интригующих детективов, леденящих душу триллеров и взрослого фэнтези.
Сюжет:Жизнь Квентина Колдуотера и Джулии Уикер переворачивается с ног на голову, когда им выпадает шанс пройти собеседование в секретный университет Брейкбиллс. К своему удивлению они обнаруживают, что вместо привычного экзамена им предлагают выполнить тест на магические способности. Молодые люди начинают догадываться, что по соседству с обычными людьми в Нью-Йорке живут волшебники и чародеи. Квентин успешно проходит испытание, но его подруге не удается произвести впечатление на преподавателей университета. Они решают стереть ее память о собеседовании, однако сама судьба противится тому, чтобы Джулия окончательно распрощалась с миром волшебства. Тем временем в стенах Брейкбиллса Колдуотер начинает постигать секреты магического искусства и развивать свои удивительные способности. Квентин еще не знает, что мир магии, который представляется всем волшебным и притягательным, скрывает ужасные тайны...





Качество :WEB-DLRip 1080p
Формат: MKV
Видео кодек: H264
Видео: 5393Кбит/сек,1920х1080(16.9),в 24.000кадр/сек,AVC(High@L4)(CABAC/2 Ref Frames)
Аудио Кодек:AC3
Аудио #1: AC3, 384 Kbps, 48.0 KHz, 6 ch - - LostFilm
Аудио #2: AC3,384 Kbps, 48.0 KHz,6 ch - - English


Звуковая дорожка сделана путем наложения чистого голоса озвучивателей на центральный канал оригинальной дорожки. Качество идентично звуковой дорожке.




01 Запрещённое волшебство (Unauthorized Magic)
02 Источник магии (The Source of Magic)
03 Последствия продвинутой магии (Consequences of Advanced Spellcasting)
04 Мир в стенах (The World in the Walls)
05 Исцеление, серьезное и не очень (Mendings, Major and Minor)
06 Нестандартное применение силы (Impractical Applications )
07 Случай у Маяковского (The Mayakovsky Circumstances)
08 Пронзённое сердце (The Strangled Heart)
09 Кабинет писателя (The Writing Room)
10 Возвращение домой (Homecoming)
11 Исцеляющая боевая магия (Remedial Battle Magic)
12 Тридцать девять могил (Thirty-Nine Graves)
13 Вы принесли мне пироженки? (Have You Brought Me Little Cakes)



Общее
Уникальный идентификатор : 242535291286264703082859563417899073411 (0xB6769916E9FB6EB89B6B29AFC9337F83)
Полное имя : E:\К ИНО\Ф Э Н Т Е З И\ВОЛШЕБНИКИ\The_Magicians_2016_S01_[LostFilm]_Н264_DD5.1_N.B_WEB-DLRip_1080p_Rus_Eng\The_Magicians_2016_S01Е01_[LostFilm]_N.B_WEB-DLRip_1080p_Rus_Eng.mkv
Формат : Matroska
Версия формата : Version 4 / Version 2
Размер файла : 2,29 Гбайт
Продолжительность : 53 м.
Режим общего битрейта : Переменный
Общий поток : 6163 Кбит/сек
Название фильма : The_Magicians_2016_S01Е01_[LostFilm]_N.B_WEB-DLRip_1080p_Rus_Eng
Дата кодирования : UTC 2016-01-30 21:17:14
Программа кодирования : mkvmerge v8.8.0 ('Wind at my back') 64bit
Библиотека кодирования : libebml v1.3.3 + libmatroska v1.4.4

Видео
Идентификатор : 1
Формат : AVC
Формат/Информация : Advanced Video Codec
Профиль формата : High@L4
Параметр CABAC формата : Да
Параметр ReFrames формата : 2 кадра
Параметр GOP формата : M=2, N=15
Идентификатор кодека : V_MPEG4/ISO/AVC
Продолжительность : 53 м.
Вид битрейта : Переменный
Битрейт : 5393 Кбит/сек
Максимальный битрейт : 16,0 Мбит/сек
Ширина : 1920 пикселей
Высота : 1080 пикселей
Соотношение сторон : 16:9
Режим частоты кадров : Переменный
Частота кадров : 24,086 кадра/сек
Частота кадров в оригинале : 29,970 (30000/1001) кадров/сек
Цветовое пространство : YUV
Субдискретизация насыщенности : 4:2:0
Битовая глубина : 8 бит
Тип развёртки : Прогрессивная
Бит/(Пиксели*Кадры) : 0.108
Размер потока : 2,00 Гбайт (88%)
Язык : English
Default : Нет
Forced : Нет

Аудио #1
Идентификатор : 2
Формат : AC-3
Формат/Информация : Audio Coding 3
Расширение режима : CM (complete main)
Параметр Endianness формата : Big
Идентификатор кодека : A_AC3
Продолжительность : 53 м.
Вид битрейта : Постоянный
Битрейт : 384 Кбит/сек
Каналы : 6 каналов
Расположение каналов : Front: L C R, Side: L R, LFE
Частота : 48,0 КГц
Частота кадров : 31,250 кадров/сек (1536 spf)
Метод сжатия : С потерями
Размер потока : 146 Мбайт (6%)
Default : Нет
Forced : Нет

Аудио #2
Идентификатор : 3
Формат : AC-3
Формат/Информация : Audio Coding 3
Расширение режима : CM (complete main)
Параметр Endianness формата : Big
Идентификатор кодека : A_AC3
Продолжительность : 53 м.
Вид битрейта : Постоянный
Битрейт : 384 Кбит/сек
Каналы : 6 каналов
Расположение каналов : Front: L C R, Side: L R, LFE
Частота : 48,0 КГц
Частота кадров : 31,250 кадров/сек (1536 spf)
Метод сжатия : С потерями
Размер потока : 146 Мбайт (6%)
Default : Нет
Forced : Нет







1. Открыть торрент
2. Снять галки с тех файлов торрента, которые мы не хотим закачивать. Оставляем только на нужных нам файлах (файле).
3. Нажать О.К.

В клиенте utorrent

Инструкция

1) Открыть торрент


2) Снять галки с тех файлов торрента, которые мы не хотим закачивать:

* либо вручную, снимая с каждого файла галку( скрин №1)
* либо, нажав кнопку "Снять метки (Select None)", сняв сразу со всех файлов(скрин №2)
№1

№2

Оставляем только на нужных нам файлах (файле).

3)Нажать О.К






Внимание!!! 05.16. 2016. РАЗДАЧА ОБНОВЛЕНА. ОБНОВИТЕ ТОРЕНТ ФАЙЛ.ПРИЯТНОГО ПРОСМОТРА . ФИНАЛ СЕЗОНА.

Релиз от: Nikolai.Baranov & PIRATIYA










Скачать Волшебники.The.Magicians.(Сезон.1.Серии.1-13.из.13).(Скотт.Смит.Джен.Элиасберг).[2016.Ужасы.фэнтези.драма.детектив.WEB-DLRip.1080p].[DD5.1].[MVO].[LostFilm.].torrent без регистрации
Золото ЗОЛОТАЯ РАЗДАЧА! СКАЧАННОЕ НЕ ЗАСЧИТЫВАЕТСЯ! Золото
Дата: Зарегистрирован   [ Тип: внутренний ] Как тут cкачать?
MAGNET ссылка
MAGNET ссылка


Скачать .torrent

68 KB

Статус: проверено DHT
Скачан: торрент - 102 раз, раздача полностью - 4 раз
Размер: 25,7 GB
Оценка:  - (Голосов: 0)
Поблагодарили: 1
Поделиться ссылкой на эту раздачу с друзьями:
В контактеFacebookОдноклассникиTwitterLivejournalМой МирLiveinternet
 

 
Показать сообщения:    


Вы не можете начинать темы
Вы не можете отвечать на сообщения
Вы не можете редактировать свои сообщения
Вы не можете удалять свои сообщения
Вы не можете голосовать в опросах
Вы не можете прикреплять файлы к сообщениям
Вы можете скачивать файлы