Loading...
Error

/ Better Call Saul ( 02) ( , ) [2016 ., , , , WEB-DL] [720p] [MVO] (Jaskier) + Original

 

leon030982

[] 

/ Better Call Saul


: 2016
:
: , ,
: ~00:45:00
:
: ( ) Jaskier
:

: , ,

: , , , , , , . ,

: , , , , , -. C- .



: WEB-DL 720p
: MKV
: h.264
: AC3
: AVC, 1280x718 (16:9), 23.976fps, ~4500 kbps, ~0.177 bit/pixel
1: Dolby AAC 48000Hz 6ch 384 Kbps
2: Dolby AAC 48000Hz 6ch 384 Kbps ()

9-10- !

:

General
Unique ID : 217579160623784861003692114031618913742 (0xA3B038D9B5E3F5DB91C5932FD50175CE)
Complete name : Z:\HD\Better Call Saul. Season 2 (WEB-DL l 720p l Jaskier)\Better.Call.Saul.S02E01.Switch.720p.WEB-DL.DD5.1.H.264-Jaskier.mkv
Format : Matroska
Format version : Version 1
File size : 1.49 GiB
Duration : 46mn 55s
Overall bit rate : 4 556 Kbps
Encoded date : UTC 2016-02-17 23:55:41
Writing application : mkvmerge v2.3.0 ('Freak U') built on Sep 8 2008 18:32:16
Writing library : libebml v0.7.7 + libmatroska v0.8.1
DURATION : 00:44:38.208000000
NUMBER_OF_FRAMES : 754
NUMBER_OF_BYTES : 31354
_STATISTICS_WRITING_APP : mkvmerge v8.8.0 ('Wind at my back') 64bit
_STATISTICS_WRITING_DATE_UT : 2016-02-16 13:08:11
_STATISTICS_TAGS : BPS DURATION NUMBER_OF_FRAMES NUMBER_OF_BYTES
Video
ID : 1
Format : AVC
Format/Info : Advanced Video Codec
Format profile : High@L3.1
Format settings, CABAC : No
Format settings, ReFrames : 2 frames
Codec ID : V_MPEG4/ISO/AVC
Duration : 46mn 55s
Bit rate : 3 890 Kbps
Width : 1 280 pixels
Height : 718 pixels
Display aspect ratio : 16:9
Frame rate mode : Constant
Frame rate : 23.976 fps
Color space : YUV
Chroma subsampling : 4:2:0
Bit depth : 8 bits
Scan type : Progressive
Bits/(Pixel*Frame) : 0.177
Stream size : 1.28 GiB (85%)
Language : English
Default : Yes
Forced : No
Color range : Limited
Color primaries : BT.709
Transfer characteristics : BT.709
Matrix coefficients : BT.709
Audio #1
ID : 2
Format : AC-3
Format/Info : Audio Coding 3
Mode extension : CM (complete main)
Format settings, Endianness : Big
Codec ID : A_AC3
Duration : 46mn 55s
Bit rate mode : Constant
Bit rate : 192 Kbps
Channel(s) : 2 channels
Channel positions : Front: L R
Sampling rate : 48.0 KHz
Compression mode : Lossy
Stream size : 64.4 MiB (4%)
Language : Russian
Default : Yes
Forced : No
Audio #2
ID : 3
Format : AC-3
Format/Info : Audio Coding 3
Mode extension : CM (complete main)
Format settings, Endianness : Big
Codec ID : A_AC3
Duration : 46mn 55s
Bit rate mode : Constant
Bit rate : 384 Kbps
Channel(s) : 6 channels
Channel positions : Front: L C R, Side: L R, LFE
Sampling rate : 48.0 KHz
Compression mode : Lossy
Stream size : 129 MiB (8%)
Language : English
Default : No
Forced : No
Text
ID : 4
Format : UTF-8
Codec ID : S_TEXT/UTF8
Codec ID/Info : UTF-8 Plain Text
Default : Yes
Forced : No
! ; . , : .
( ).
, .
() ( - ), . , !
E , , . , , .
 

leon030982

[] 

:

3-5-
 

[] 



leon030982
 

[] 

()

Shara
 
: