Loading...
Error

Скачать Король-лягушонок / Der Froschkonig (Франциска Бух) [2008, фэнтези, мелодрама, семейный, BDRip-AVC] [AVO (Юрий Сербин)]+[Оригинал] торрент без регистрации

 
Статистика раздачи
Размер:  1,09 GB   |    Скачан:  55 раз
Сидов:  2  [  0 KB/s  ]  
 
Автор Сообщение

Marsianka

[] 


Страна: Германия / Bavaria Filmverleih- und Produktions GmbH, Südwestrundfunk (SWR)

Жанр: фэнтези, мелодрама, семейный
Год выпуска: 2008
Продолжительность: 01:04:09

Перевод: Авторский (одноголосый) Юрий Сербин
Cубтитры: нет
Оригинальная аудиодорожка: немецкий

Режиссер: Франциска Бух / Franziska Buch

В ролях: Сидони фон Кросигк, Фридрих фон Тун, Рихи Мюллер, Александр Мербет, Мари-Луиза Стал, Янина Штоппер, Джоана Мендл-Финк, Джоанна Лейнен, Мориц Шульц, Джонатан Бек...

Описание: Однажды прекрасная принцесса пошла к пруду поиграть со своим золотым мячиком. Случайно мячик упал в пруд и утонул. Помочь опечаленной девушке вызвался живущий в пруду лягушонок, получивший взамен обещание дружить с ним. Принцесса и подумать не могла, что лягушонок явится во дворец и потребует выполнения обещания, ведь мало какой девушке будет приятно общение с таким другом…



Качество: BDRip-AVC / Blu-ray 1080i
Формат: MKV

Видео: 1024x750 (4:3), MPEG4-AVC 2045 Кбит/сек / 25.000 fps / Бит/(Пиксели*Кадры) : 0.107
Аудио 1: 48 kHz, Dolby AC3, 2 ch, 192 kbps, русский
Аудио 2: 48 kHz, Dolby AC3, 2 ch, 192 kbps, немецкий

Дополнительно: На оригинальную дорожку наложен чистый голос перевода Юрия Сербина.
Раздача от:

General
Format : Matroska
Format version : Version 4 / Version 2
File size : 1.09 GiB
Duration : 1h 4mn
Overall bit rate : 2 431 Kbps
Encoded date : UTC 2016-02-19 13:39:40
Writing application : mkvmerge v8.8.0 ('Wind at my back') 64bit
Writing library : libebml v1.3.3 + libmatroska v1.4.4

Video
ID : 1
Format : AVC
Format/Info : Advanced Video Codec
Format profile : High@L4.1
Format settings, CABAC : Yes
Format settings, ReFrames : 8 frames
Codec ID : V_MPEG4/ISO/AVC
Duration : 1h 4mn
Bit rate : 2 045 Kbps
Width : 1 024 pixels
Height : 750 pixels
Display aspect ratio : 4:3
Frame rate mode : Constant
Frame rate : 25.000 fps
Color space : YUV
Chroma subsampling : 4:2:0
Bit depth : 8 bits
Scan type : Progressive
Bits/(Pixel*Frame) : 0.107
Stream size : 938 MiB (84%)
Writing library : x264 core 148 r2597 e86f3a1
Encoding settings : cabac=1 / ref=8 / deblock=1:-2:-1 / analyse=0x3:0x113 / me=umh / subme=10 / psy=1 / psy_rd=1.00:0.05 / mixed_ref=1 / me_range=32 / chroma_me=1 / trellis=2 / 8x8dct=1 / cqm=0 / deadzone=21,11 / fast_pskip=0 / chroma_qp_offset=-3 / threads=9 / lookahead_threads=1 / sliced_threads=0 / nr=0 / decimate=0 / interlaced=0 / bluray_compat=0 / constrained_intra=0 / bframes=8 / b_pyramid=2 / b_adapt=2 / b_bias=0 / direct=3 / weightb=1 / open_gop=0 / weightp=2 / keyint=250 / keyint_min=25 / scenecut=40 / intra_refresh=0 / rc=2pass / mbtree=0 / bitrate=2045 / ratetol=1.0 / qcomp=0.60 / qpmin=0 / qpmax=69 / qpstep=4 / cplxblur=20.0 / qblur=0.5 / ip_ratio=1.40 / pb_ratio=1.30 / aq=1:1.00
Language : Dutch
Default : Yes
Forced : No

Audio #1
ID : 2
Format : AC-3
Format/Info : Audio Coding 3
Format profile : Dolby Digital
Mode extension : CM (complete main)
Format settings, Endianness : Big
Codec ID : A_AC3
Duration : 1h 4mn
Bit rate mode : Constant
Bit rate : 192 Kbps
Channel(s) : 2 channels
Channel positions : Front: L R
Sampling rate : 48.0 KHz
Frame rate : 31.250 fps (1536 spf)
Compression mode : Lossy
Stream size : 88.1 MiB (8%)
Language : Russian
Default : Yes
Forced : No

Audio #2
ID : 3
Format : AC-3
Format/Info : Audio Coding 3
Format profile : Dolby Digital
Mode extension : CM (complete main)
Format settings, Endianness : Big
Codec ID : A_AC3
Duration : 1h 4mn
Bit rate mode : Constant
Bit rate : 192 Kbps
Channel(s) : 2 channels
Channel positions : Front: L R
Sampling rate : 48.0 KHz
Frame rate : 31.250 fps (1536 spf)
Compression mode : Lossy
Stream size : 88.1 MiB (8%)
Language : Dutch
Default : No
Forced : No



Скачать Король-лягушонок.Der.Froschkonig.(Франциска.Бух).[2008.фэнтези.мелодрама.семейный.BDRip-AVC].[AVO.(Юрий.Сербин)]+[Оригинал].torrent без регистрации
Золото ЗОЛОТАЯ РАЗДАЧА! СКАЧАННОЕ НЕ ЗАСЧИТЫВАЕТСЯ! Золото
Дата: Зарегистрирован   [ Тип: внешний ] Как тут cкачать?
MAGNET ссылка
MAGNET ссылка


Скачать .torrent

12 KB

Статус: проверено DHT
Скачан: торрент - 55 раз, раздача полностью - 5 раз
Размер: 1,09 GB
Оценка:  - (Голосов: 0)
Поблагодарили: 1
Поделиться ссылкой на эту раздачу с друзьями:
В контактеFacebookОдноклассникиTwitterLivejournalМой МирLiveinternet
 

 
Показать сообщения:    


Вы не можете начинать темы
Вы не можете отвечать на сообщения
Вы не можете редактировать свои сообщения
Вы не можете удалять свои сообщения
Вы не можете голосовать в опросах
Вы не можете прикреплять файлы к сообщениям
Вы можете скачивать файлы