Loading...
Error

Скачать Викинги / Vikings (04x01-11 из 20) (Кен Джиротти и др.) [2016, боевик, драма, история, WEB-DL] [1080p] [MVO (OMSKBIRD records)]+[Original]+[Sub Eng] торрент без регистрации

 
Статистика раздачи
Размер:  19,97 GB   |    Скачан:  181 раз
Сидов:  1  [  0 KB/s  ]  
 
Автор Сообщение

МихаНЕзатор

[] 

Информация о фильме
Название: Викинги
Оригинальное название: Vikings
Год выхода: 2016
Жанр: боевик, драма, история
Режиссер: Кен Джиротти, Киаран Доннелли, Джефф Вулнаф

В ролях: Трэвис Фиммел, Клайв Стэнден, Густаф Скарсгард, Кэтрин Уинник, Джордж Благден, Джессалин Гилсиг, Мод Хирст, Алисса Сазерленд, Джефферсон Холл, Александр Людвиг и др.

О фильме: История повествует о приключениях величайшего героя своего времени – Рагнара Лодброка. В сериале показан Рагнар со своим племенем братьев-викингов и его семьёй в процессе становления королём всех племён викингов. Рагнар – бесстрашный воин, и религиозный викинг, который объединяет все племена и распространяет среди них поклонение скандинавским богам. Согласно легенде, он – прямой потомок Одина, бога войны и воителей.



Релиз от: Grandfather61 (skyns61)

Страна: Ирландия, Канада
Продолжительность: ~ 00:44:00 серия
Перевод: Любительский (многоголосый закадровый) | OMSKBIRD records

Файл
Кодек: MPEG-4 AVC/H.264
Качество: WEB-DL 1080p
Видео: 1916x1076 (16:9), 23,976 fps, ~5089 kbps, 0.103 bit/pixel
Звук:
Аудио rus: AC3, 48 kHz, 6 ch, 384 kbps | OMSKBIRD records
Аудио eng: AC3, 48 kHz, 6 ch, 384 kbps | original
Субтитры: английские

АНОНСЫ ПОПУЛЯРНЫХ РАЗДАЧ


Торрент обновлён, добавлена 11-я серия!

01. .A Good Treason
02. Kill the Queen
03. Mercy
04. Yol
05. Promised
06. What Might Have Been
07. The Profit and the Loss
08. Portage
09. Death All 'Round
10. The Last Ship
11. The Outsider

Релиз-группа:
Релиз подготовил:Grandfather61 (Skyns61)
Роли озвучивали: Павел Ярощик, Алексей Гнеушев, Владислав Данилов, Максим Максимов, Алекс Дьяк и Ольга Федорова
Перевод:Лилия Кушнаренко
Звукорежиссер: Павел Квентов
Постер: Ксения Просветова
Сборка, работа со звуком: Grandfather61 (Skyns61)

Общее
Уникальный идентификатор : 213174903264602368179173445928723879727 (0xA05FFE328E3234B8838E5434E43F172F)
Полное имя : G:FilmsVikings.s04.1080p.OmskBirdVikings.S04E01.1080p.WEB-DL.OmskBird.DD5.1.mkv
Формат : Matroska
Версия формата : Version 4 / Version 2
Размер файла : 1,81 Гбайт
Продолжительность : 44 м.
Общий поток : 5859 Кбит/сек
Дата кодирования : UTC 2016-02-20 05:39:15
Программа кодирования : mkvmerge v8.6.1 ('Flying') 64bit
Библиотека кодирования : libebml v1.3.3 + libmatroska v1.4.4

Видео
Идентификатор : 1
Формат : AVC
Формат/Информация : Advanced Video Codec
Профиль формата : High@L4
Параметр CABAC формата : Да
Параметр ReFrames формата : 4 кадра
Идентификатор кодека : V_MPEG4/ISO/AVC
Продолжительность : 44 м.
Битрейт : 5089 Кбит/сек
Ширина : 1916 пикселей
Высота : 1076 пикселей
Соотношение сторон : 16:9
Режим частоты кадров : Постоянный
Частота кадров : 23,976 (23976/1000) кадра/сек
Цветовое пространство : YUV
Субдискретизация насыщенности : 4:2:0
Битовая глубина : 8 бит
Тип развёртки : Прогрессивная
Бит/(Пиксели*Кадры) : 0.103
Размер потока : 1,57 Гбайт (87%)
Язык : English
Default : Да
Forced : Нет
colour_range : Limited
Основные цвета : BT.709
Характеристики трансфера : BT.709
Коэффициенты матрицы : BT.709

Аудио #1
Идентификатор : 2
Формат : AC-3
Формат/Информация : Audio Coding 3
Расширение режима : CM (complete main)
Параметр Endianness формата : Big
Идентификатор кодека : A_AC3
Продолжительность : 44 м.
Вид битрейта : Постоянный
Битрейт : 384 Кбит/сек
Каналы : 6 каналов
Расположение каналов : Front: L C R, Side: L R, LFE
Частота : 48,0 КГц
Частота кадров : 31,250 кадров/сек (1536 spf)
Метод сжатия : С потерями
Размер потока : 121 Мбайт (7%)
Заголовок : OmskBird 5.1
Язык : Russian
Default : Да
Forced : Нет

Аудио #2
Идентификатор : 3
Формат : AC-3
Формат/Информация : Audio Coding 3
Расширение режима : CM (complete main)
Параметр Endianness формата : Big
Идентификатор кодека : A_AC3
Продолжительность : 44 м.
Вид битрейта : Постоянный
Битрейт : 384 Кбит/сек
Каналы : 6 каналов
Расположение каналов : Front: L C R, Side: L R, LFE
Частота : 48,0 КГц
Частота кадров : 31,250 кадров/сек (1536 spf)
Метод сжатия : С потерями
Размер потока : 121 Мбайт (7%)
Заголовок : original 5.1
Язык : English
Default : Нет
Forced : Нет

Текст
Идентификатор : 4
Формат : UTF-8
Идентификатор кодека : S_TEXT/UTF8
Идентификатор кодека/Информация : UTF-8 Plain Text
Продолжительность : 43 м.
Битрейт : 40 бит/сек
Count of elements : 535
Размер потока : 13,0 Кбайт (0%)
Заголовок : CC
Язык : English
Default : Нет
Forced : Нет

[color=brown]
Внимание! Раздача ведётся путём добавления новых серий; при каждом добавлении создётся новый торрент. Чтобы начать докачку новой серии, пользователям необходимо сделать следующее:
Остановить скачивание.
Удалить старый торрент у себя из клиента (старые серии удалять не надо).
Скачать новый торрент и запустить его у себя в клиенте вместо старого, при этом указать клиенту путь в старую папку куда и должно происходить скачивание новых серий.
Ваш клиент при этом должен произвести хеширование (проверку) старой папки (если не производит сам - помогите ему сделать это), и будет докачивать только те серии которых у вас ещё нет. Старые серии при этом не удаляются, а продолжают раздаваться!
Eсли вы уже удалили старые серии, то предотвратить повторную закачку старых серий можно, отжав галочку в соответсвующих местах при запуске нового торрента. По возможности, желательно не удалять старые серии как можно дольше чтобы релизёр не столько продолжал раздавать старые серии, а смог сконцентрироваться на новых.



Скачать Викинги.Vikings.(04x01-11.из.20).(Кен.Джиротти.и.др.).[2016.боевик.драма.история.WEB-DL].[1080p].[MVO.(OMSKBIRD.records)]+[Original]+[Sub.Eng].torrent без регистрации
Золото ЗОЛОТАЯ РАЗДАЧА! СКАЧАННОЕ НЕ ЗАСЧИТЫВАЕТСЯ! Золото
Дата: Зарегистрирован   [ Тип: внутренний ] Как тут cкачать?
MAGNET ссылка
MAGNET ссылка


Скачать .torrent

52 KB

Статус: проверено DHT
Скачан: торрент - 181 раз, раздача полностью - 0 раз
Размер: 19,97 GB
Оценка:  - (Голосов: 0)
Поблагодарили: 1
Поделиться ссылкой на эту раздачу с друзьями:
В контактеFacebookОдноклассникиTwitterLivejournalМой МирLiveinternet
 

 
Показать сообщения:    


Вы не можете начинать темы
Вы не можете отвечать на сообщения
Вы не можете редактировать свои сообщения
Вы не можете удалять свои сообщения
Вы не можете голосовать в опросах
Вы не можете прикреплять файлы к сообщениям
Вы можете скачивать файлы