Loading...
Error

Скачать Бич божий / Bicz Boży (Мария Каневска) [1966, комедия, TVRip-AVC] [MVO]+[Sub]x2 торрент без регистрации

 
Статистика раздачи
Размер:  1,29 GB   |    Скачан:  36 раз
Сидов:  1  [  0 KB/s  ]  
 
Автор Сообщение

Marsianka

[] 

Информация о фильме
Название: Бич божий
Оригинальное название: Bicz Boży
Год выхода: 1966
Жанр: комедия
Режиссер: Мария Каневска
В ролях: Барбара Драпиньская, Станислав Микульский, Ремигюш Зажицкий, Поля Ракса, Кристина Борович, Ванда Хлёупек, Кристина Карковская, Александра Дмоховская, Мария Козерская, Зофия Вильчиньская, Мария Каневская, Ежи Беленя, Алиция Цихецкая, Роман Сыкала, Барбара Голембевская, Бохдан Врублевский, Зигмунт Новицкий, Рышард Дембиньский, Станислав Мариан Каминьский, Влодзимеж Скочиляс, Рышард Рончевский, Эва Здзешиньская, Ежи Пшибыльский, Данута Петрашкевич, Мариуш Дмоховский, Станислав Мильский, Тадеуш Вачковский, Цезары Юльский, Леон Немчик, Януш Гайос, Ежи Зигмунт Новак, Анджей Выкрентович

О фильме:
Популярнейшая польская комедия 60-х годов.

В маленьком городке живет 10-летний Фелек. Он изнывает от скуки, тоски и уныния и мечтает перебраться отсюда в какой-нибудь большой город (желательно, в столицу). Самое интересное, что эта мечта не такая уж безнадежная - старший брат Фелека, Павел, служит в милиции и, если бы хорошо себя зарекомендовал (например, раскрыл бы какое-нибудь крупное преступление), то был бы переведен в более приличное место. Проблема, однако, заключается в том, в городке никогда ничего не происходит…

Фелеку приходит в голову мысль поправить положение, опираясь на знания, полученные в детективных повестях. Впитывая в себя различные сплетни (в основном, от матери и ее подруг), он получает обширную информацию о разных грешках жителей городка. После чего начинает рассылать им грозные анонимные послания. План Фелека заключается в том, что каждый, получив подобное письмо, побежит признаваться в милицию. И это даст возможность Павлу раскрутить сложное и запутанное дело (да и не одно). Увы, как это часто бывает, хитроумный план не вписался в действительность. Появилось только одно уголовное дело – против "опасного шантажиста, терроризирующего город". В конце концов, Фелеку ничего не остается, как признаться…



Производство: Польша / Zespól Filmowy "Start"
Продолжительность: 01:21:16
Перевод: любительский (многолосый закадровый) [Levelin]

Файл
Качество: TVRip-AVC
Формат: MKV
Видео: MPEG-4 AVC, 720x540 (4:3), 25.000 fps, 1956 kbps
Аудио #1: русский, AC3 2.0, 48 KHz, 192 kbps
Аудио #2: польский, AC3 2.0, 48 KHz, 128 kbps
Субтитры: русские, украинские вшитые отключаемые
Общее
Полное имя : Bicz.Bozy.1966.MVO.TVRip-AVC.mkv
Формат : Matroska
Версия формата : Version 4 / Version 2
Размер файла : 1,29 Гбайт
Продолжительность : 1 ч. 21 м.
Общий поток : 2279 Кбит/сек
Дата кодирования : UTC 2016-02-17 13:31:12
Программа кодирования : mkvmerge v8.7.0 ('All of the above') 64bit
Библиотека кодирования : libebml v1.3.3 + libmatroska v1.4.4
DURATION : 01:21:15.808000000
NUMBER_OF_FRAMES : 152369
NUMBER_OF_BYTES : 117019392
_STATISTICS_WRITING_APP : mkvmerge v8.7.0 ('All of the above') 64bit
_STATISTICS_WRITING_DATE_UTC : 2016-02-17 13:31:12
_STATISTICS_TAGS : BPS DURATION NUMBER_OF_FRAMES NUMBER_OF_BYTES

Видео
Идентификатор : 1
Формат : AVC
Формат/Информация : Advanced Video Codec
Профиль формата : High@L3
Параметр CABAC формата : Да
Параметр ReFrames формата : 4 кадра
Идентификатор кодека : V_MPEG4/ISO/AVC
Продолжительность : 1 ч. 21 м.
Битрейт : 1956 Кбит/сек
Ширина : 720 пикселей
Высота : 540 пикселей
Соотношение сторон : 4:3
Режим частоты кадров : Постоянный
Частота кадров : 25,000 кадров/сек
Цветовое пространство : YUV
Субдискретизация насыщенности : 4:2:0
Битовая глубина : 8 бит
Тип развёртки : Прогрессивная
Бит/(Пиксели*Кадры) : 0.201
Размер потока : 1,09 Гбайт (84%)
Библиотека кодирования : x264 core 138 r2358 9e941d1
Настройки программы : cabac=1 / ref=3 / deblock=1:0:0 / analyse=0x3:0x113 / me=hex / subme=7 / psy=1 / psy_rd=1.00:0.00 / mixed_ref=1 / me_range=16 / chroma_me=1 / trellis=1 / 8x8dct=1 / cqm=0 / deadzone=21,11 / fast_pskip=1 / chroma_qp_offset=-2 / threads=4 / lookahead_threads=1 / sliced_threads=0 / nr=0 / decimate=1 / interlaced=0 / bluray_compat=0 / constrained_intra=0 / bframes=3 / b_pyramid=2 / b_adapt=1 / b_bias=0 / direct=1 / weightb=1 / open_gop=0 / weightp=2 / keyint=250 / keyint_min=25 / scenecut=40 / intra_refresh=0 / rc_lookahead=40 / rc=2pass / mbtree=1 / bitrate=1956 / ratetol=1.0 / qcomp=0.60 / qpmin=10 / qpmax=51 / qpstep=4 / cplxblur=20.0 / qblur=0.5 / ip_ratio=1.40 / aq=1:1.00
Язык : Polish
Default : Да
Forced : Нет

Аудио #1
Идентификатор : 2
Формат : AC-3
Формат/Информация : Audio Coding 3
Расширение режима : CM (complete main)
Параметр Endianness формата : Big
Идентификатор кодека : A_AC3
Продолжительность : 1 ч. 21 м.
Вид битрейта : Постоянный
Битрейт : 192 Кбит/сек
Каналы : 2 канала
Расположение каналов : Front: L R
Частота : 48,0 КГц
Метод сжатия : С потерями
Размер потока : 112 Мбайт (8%)
Язык : Russian
Default : Да
Forced : Нет

Аудио #2
Идентификатор : 3
Формат : AC-3
Формат/Информация : Audio Coding 3
Расширение режима : CM (complete main)
Параметр Endianness формата : Big
Идентификатор кодека : A_AC3
Продолжительность : 1 ч. 21 м.
Вид битрейта : Постоянный
Битрейт : 128 Кбит/сек
Каналы : 2 канала
Расположение каналов : Front: L R
Частота : 48,0 КГц
Метод сжатия : С потерями
Размер потока : 74,4 Мбайт (6%)
Язык : Polish
Default : Нет
Forced : Нет

Текст #1
Идентификатор : 4
Формат : UTF-8
Идентификатор кодека : S_TEXT/UTF8
Идентификатор кодека/Информация : UTF-8 Plain Text
Язык : Russian
Default : Нет
Forced : Нет

Текст #2
Идентификатор : 5
Формат : UTF-8
Идентификатор кодека : S_TEXT/UTF8
Идентификатор кодека/Информация : UTF-8 Plain Text
Язык : Ukrainian
Default : Нет
Forced : Нет
Русские субтитры изготовлены Minhers76, Alevtina, vsaha на основе монтажных листов советского дубляжа, предоставленые GoodLuck
Перевод вырезанных сцен и корректировку субтитров выполнил vsasha
Озвучка Levelin (Семен Ващенко, Алиса Лебедева, Татьяна Манитина)
Организация озвучания - Minhers76
Релиз от



Скачать Бич.божий.Bicz.Boży.(Мария.Каневска).[1966.комедия.TVRip-AVC].[MVO]+[Sub]x2.torrent без регистрации
Золото ЗОЛОТАЯ РАЗДАЧА! СКАЧАННОЕ НЕ ЗАСЧИТЫВАЕТСЯ! Золото
Дата: Зарегистрирован   [ Тип: внутренний ] Как тут cкачать?
MAGNET ссылка
MAGNET ссылка


Скачать .torrent

14 KB

Статус: проверено DHT
Скачан: торрент - 36 раз, раздача полностью - 5 раз
Размер: 1,29 GB
Оценка:  - (Голосов: 0)
Поблагодарили: 0
Поделиться ссылкой на эту раздачу с друзьями:
В контактеFacebookОдноклассникиTwitterLivejournalМой МирLiveinternet
 

 
Показать сообщения:    


Вы не можете начинать темы
Вы не можете отвечать на сообщения
Вы не можете редактировать свои сообщения
Вы не можете удалять свои сообщения
Вы не можете голосовать в опросах
Вы не можете прикреплять файлы к сообщениям
Вы можете скачивать файлы