Loading...
Error

Скачать Бич божий / Bicz Bozy (Мария Каневска) [1966, комедия, TVRip] [VO]+[Sub] торрент без регистрации

 
Статистика раздачи
Размер:  777 MB   |    Скачан:  37 раз
Сидов:  1  [  0 KB/s  ]  
 
Автор Сообщение

Marsianka

[] 

Информация о фильме
Название: Бич божий
Оригинальное название: Bicz Bozy
Год выхода: 1966
Жанр: комедия
Режиссер: Мария Каневска
В ролях: Барбара Драпиньская, Станислав Микульский, Ремигюш Зажицкий, Поля Ракса, Кристина Борович, Ванда Хлёупек, Кристина Карковская, Александра Дмоховская, Мария Козерская, Зофия Вильчиньская, Мария Каневская, Ежи Беленя, Алиция Цихецкая, Роман Сыкала, Барбара Голембевская, Бохдан Врублевский, Зигмунт Новицкий, Рышард Дембиньский, Станислав Мариан Каминьский, Влодзимеж Скочиляс, Рышард Рончевский, Эва Здзешиньская, Ежи Пшибыльский, Данута Петрашкевич, Мариуш Дмоховский, Станислав Мильский, Тадеуш Вачковский, Цезары Юльский, Леон Немчик, Януш Гайос, Ежи Зигмунт Новак, Анджей Выкрентович

О фильме:
Популярнейшая польская комедия 60-х годов.

В маленьком городке живет 10-летний Фелек. Он изнывает от скуки, тоски и уныния и мечтает перебраться отсюда в какой-нибудь большой город (желательно, в столицу). Самое интересное, что эта мечта не такая уж безнадежная - старший брат Фелека, Павел, служит в милиции и, если бы хорошо себя зарекомендовал (например, раскрыл бы какое-нибудь крупное преступление), то был бы переведен в более приличное место. Проблема, однако, заключается в том, в городке никогда ничего не происходит…

Фелеку приходит в голову мысль поправить положение, опираясь на знания, полученные в детективных повестях. Впитывая в себя различные сплетни (в основном, от матери и ее подруг), он получает обширную информацию о разных грешках жителей городка. После чего начинает рассылать им грозные анонимные послания. План Фелека заключается в том, что каждый, получив подобное письмо, побежит признаваться в милицию. И это даст возможность Павлу раскрутить сложное и запутанное дело (да и не одно). Увы, как это часто бывает, хитроумный план не вписался в действительность. Появилось только одно уголовное дело – против "опасного шантажиста, терроризирующего город". В конце концов, Фелеку ничего не остается, как признаться…



Страна: Польша / Zespól Filmowy "Start"
Продолжительность: 01:21:15
Перевод: любительский (одноголосый закадровый) [viktor_2838]

Файл
Качество: TVRip
Видео: XviD, 512x384 (4:3), 25.000 fps, 1066 kbps
Аудио #1: русский, MP3 2.0, 48 KHz, 128 kbps
Аудио #2: польский, MP3 2.0, 48 KHz, 128 kbps
Субтитры: русские внешние, SRT
Общее
Полное имя : Bicz.Bozy.1966.avi
Формат : AVI
Формат/Информация : Audio Video Interleave
Размер файла : 777 Мбайт
Продолжительность : 1 ч. 21 м.
Общий поток : 1336 Кбит/сек
Программа кодирования : VirtualDubModRus 1.5.10.2 (build 2542/release)
Библиотека кодирования : VirtualDubMod build 2542/release

Видео
Идентификатор : 0
Формат : MPEG-4 Visual
Профиль формата : Advanced Simple@L5
Параметр BVOP формата : 1
Параметр QPel формата : Нет
Параметр GMC формата : Без точки перехода
Параметр матрицы формата : Выборочная
Идентификатор кодека : XVID
Идентификатор кодека/Подсказка : XviD
Продолжительность : 1 ч. 21 м.
Битрейт : 1066 Кбит/сек
Ширина : 512 пикселей
Высота : 384 пикселя
Соотношение сторон : 4:3
Частота кадров : 25,000 кадров/сек
Цветовое пространство : YUV
Субдискретизация насыщенности : 4:2:0
Битовая глубина : 8 бит
Тип развёртки : Прогрессивная
Метод сжатия : С потерями
Бит/(Пиксели*Кадры) : 0.217
Размер потока : 620 Мбайт (80%)
Библиотека кодирования : XviD 1.0.2 (UTC 2004-08-29)

Аудио #1
Идентификатор : 1
Формат : MPEG Audio
Версия формата : Version 1
Профиль формата : Layer 3
Режим : Joint stereo
Расширение режима : MS Stereo
Идентификатор кодека : 55
Идентификатор кодека/Подсказка : MP3
Продолжительность : 1 ч. 21 м.
Вид битрейта : Постоянный
Битрейт : 128 Кбит/сек
Каналы : 2 канала
Частота : 48,0 КГц
Метод сжатия : С потерями
Размер потока : 74,4 Мбайт (10%)
Выравнивание : Соединение по промежуткам
Продолжительность промежутка : 40 мс. (1,00 видеокадр)
Время предзагрузки промежутка : 504 мс.

Аудио #2
Идентификатор : 2
Формат : MPEG Audio
Версия формата : Version 1
Профиль формата : Layer 3
Режим : Joint stereo
Расширение режима : MS Stereo
Идентификатор кодека : 55
Идентификатор кодека/Подсказка : MP3
Продолжительность : 1 ч. 21 м.
Вид битрейта : Постоянный
Битрейт : 128 Кбит/сек
Каналы : 2 канала
Частота : 48,0 КГц
Метод сжатия : С потерями
Размер потока : 74,4 Мбайт (10%)
Выравнивание : Соединение по промежуткам
Продолжительность промежутка : 40 мс. (1,00 видеокадр)
Время предзагрузки промежутка : 504 мс.
Исходный материал предоставил: ukkond
Русские субтитры изготовлены на основе монтажных листов советского дубляжа,
предоставленные GoodLuck
Изготовление субтитров: Minhers76
На отсутствующие места перевода в монтажных листах перевод выполнен: vsasha
Озвучка: viktor_2838
Релиз от



Скачать Бич.божий.Bicz.Bozy.(Мария.Каневска).[1966.комедия.TVRip].[VO]+[Sub].torrent без регистрации
Золото ЗОЛОТАЯ РАЗДАЧА! СКАЧАННОЕ НЕ ЗАСЧИТЫВАЕТСЯ! Золото
Дата: Зарегистрирован   [ Тип: внутренний ] Как тут cкачать?
MAGNET ссылка
MAGNET ссылка


Скачать .torrent

16 KB

Статус: проверено DHT
Скачан: торрент - 37 раз, раздача полностью - 2 раз
Размер: 777 MB
Оценка:  - (Голосов: 0)
Поблагодарили: 0
Поделиться ссылкой на эту раздачу с друзьями:
В контактеFacebookОдноклассникиTwitterLivejournalМой МирLiveinternet
 

 
Показать сообщения:    


Вы не можете начинать темы
Вы не можете отвечать на сообщения
Вы не можете редактировать свои сообщения
Вы не можете удалять свои сообщения
Вы не можете голосовать в опросах
Вы не можете прикреплять файлы к сообщениям
Вы можете скачивать файлы