Loading...
Error

Скачать Очаровательная проказница / La belle noiseuse (Жак Риветт) [1991, драма, ..., DVDRip-AVC] [MVO]+[Sub]x2 торрент без регистрации

 
Статистика раздачи
Размер:  7,63 GB   |    Скачан:  37 раз
Сидов:  1  [  0 KB/s  ]  
 
Автор Сообщение

Marsianka

[] 

Название: Очаровательная проказница
Оригинальное название: La belle noiseuse
Год выхода: 1991
Страна: Франция, Швейцария
Студия: Pierre Grise Productions, George Reinhart Productions, FR3 Films Production
Продолжительность: 02:09:00, 01:39:51
Жанр: драма, ...

Режиссер: Жак Риветт
В ролях: Мишель Пикколи, Джейн Биркин, Эммануэль Беар, Марианн Деникур, Дэвид Бурштейн, Жиль Арбона, Мари Беллюк, Мари-Клод Роже, Лейла Ремили, Дафна Гудфеллоу, ...

Перевод:
Профессиональный (многоголосый, закадровый)
Субтитры

О фильме: Драма о непростых взаимоотношениях художников и моделей. Известный в прошлом живописец, Френхофер живет уединенно в небольшой деревеньке на юге Франции. Его приезжает навестить молодой коллега-художник с юной подругой Марианной.
Увидев девушку, Френхофер решает закончить картину «Очаровательная проказница», работу над которой он начал много лет назад и бросил. Возвращение к творчеству и участие в процессе Марианны в качестве модели полностью меняет отношения в этом любовном треугольнике…



Кодек: x264
Качество: DVDRip-AVC
Видео: 748x576 , 4000 kbps, 25 fps
Аудио #1: AC-3, 6 ch, 384 kbps (Rus) - MVO
Аудио #2: AC-3, 6 ch, 384 kbps (Fre)
Субтитры: Русские, Английские
За исходник спасибо - Гость

Можно сравнить отмасштабированные PotPlayerом в 1080 изображения рипа и исходника:


x264 [info]: frame I:959 Avg QP:14.55 size: 78908
x264 [info]: frame P:33830 Avg QP:16.85 size: 38799
x264 [info]: frame B:158711 Avg QP:18.73 size: 15635
x264 [info]: consecutive B-frames: 0.6% 0.7% 2.5% 10.7% 16.2% 40.1% 14.2% 3.3% 3.5% 4.6% 1.6% 0.9% 1.2%

Общее
Уникальный идентификатор : 188251004498618918190388517578599593050 (0x8D9FD31D14AA5D7EA325FDE96D64745A)
Полное имя : Очаровательная проказница 1 (La belle noiseuse) 1991 DVDRemux.mkv
Формат : Matroska
Версия формата : Version 2
Размер файла : 4,30 Гбайт
Продолжительность : 2 ч. 9 м.
Общий поток : 4770 Кбит/сек
Дата кодирования : UTC 2016-02-23 19:10:05
Программа кодирования : mkvmerge v4.0.0 ('The Stars were mine') сборка от Jun 6 2010 16:18:42
Библиотека кодирования : libebml v1.0.0 + libmatroska v1.0.0

Видео
Идентификатор : 1
Формат : AVC
Формат/Информация : Advanced Video Codec
Профиль формата : High@L4.1
Параметр CABAC формата : Да
Параметр ReFrames формата : 9 кадров
Идентификатор кодека : V_MPEG4/ISO/AVC
Продолжительность : 2 ч. 9 м.
Битрейт : 4000 Кбит/сек
Ширина : 748 пикселей
Высота : 576 пикселей
Соотношение сторон : 1,299
Режим частоты кадров : Постоянный
Частота кадров : 25,000 кадров/сек
Цветовое пространство : YUV
Субдискретизация насыщенности : 4:2:0
Битовая глубина : 8 бит
Тип развёртки : Прогрессивная
Бит/(Пиксели*Кадры) : 0.371
Размер потока : 3,52 Гбайт (82%)
Библиотека кодирования : x264 core 146 r2538 121396c
Настройки программы : cabac=1 / ref=9 / deblock=1:-3:-3 / analyse=0x3:0x133 / me=umh / subme=11 / psy=1 / psy_rd=1.00:0.00 / mixed_ref=1 / me_range=32 / chroma_me=1 / trellis=2 / 8x8dct=1 / cqm=0 / deadzone=21,11 / fast_pskip=0 / chroma_qp_offset=-2 / threads=12 / lookahead_threads=2 / sliced_threads=0 / nr=0 / decimate=0 / interlaced=0 / bluray_compat=0 / constrained_intra=0 / bframes=12 / b_pyramid=2 / b_adapt=2 / b_bias=0 / direct=3 / weightb=1 / open_gop=0 / weightp=2 / keyint=250 / keyint_min=25 / scenecut=40 / intra_refresh=0 / rc=2pass / mbtree=0 / bitrate=4000 / ratetol=1.0 / qcomp=0.60 / qpmin=0 / qpmax=69 / qpstep=4 / cplxblur=20.0 / qblur=0.5 / ip_ratio=1.40 / pb_ratio=1.30 / aq=1:0.80
Язык : French
Default : Нет
Forced : Нет

Аудио #1
Идентификатор : 2
Формат : AC-3
Формат/Информация : Audio Coding 3
Расширение режима : CM (complete main)
Параметр Endianness формата : Big
Идентификатор кодека : A_AC3
Продолжительность : 2 ч. 9 м.
Вид битрейта : Постоянный
Битрейт : 384 Кбит/сек
Каналы : 6 каналов
Расположение каналов : Front: L C R, Side: L R, LFE
Частота : 48,0 КГц
Метод сжатия : С потерями
Размер потока : 354 Мбайт (8%)
Заголовок : MVO
Язык : Russian
Default : Нет
Forced : Нет

Аудио #2
Идентификатор : 3
Формат : AC-3
Формат/Информация : Audio Coding 3
Расширение режима : CM (complete main)
Параметр Endianness формата : Big
Идентификатор кодека : A_AC3
Продолжительность : 2 ч. 9 м.
Вид битрейта : Постоянный
Битрейт : 384 Кбит/сек
Каналы : 6 каналов
Расположение каналов : Front: L C R, Side: L R, LFE
Частота : 48,0 КГц
Метод сжатия : С потерями
Размер потока : 354 Мбайт (8%)
Язык : French
Default : Нет
Forced : Нет

Текст #1
Идентификатор : 4
Формат : UTF-8
Идентификатор кодека : S_TEXT/UTF8
Идентификатор кодека/Информация : UTF-8 Plain Text
Язык : Russian
Default : Нет
Forced : Нет

Текст #2
Идентификатор : 5
Формат : UTF-8
Идентификатор кодека : S_TEXT/UTF8
Идентификатор кодека/Информация : UTF-8 Plain Text
Язык : English
Default : Нет
Forced : Нет

---------------------------------------------------------------------------
x264 [info]: frame I:742 Avg QP:14.74 size: 78139
x264 [info]: frame P:25474 Avg QP:17.03 size: 38851
x264 [info]: frame B:123562 Avg QP:18.96 size: 15766
x264 [info]: consecutive B-frames: 0.6% 0.5% 2.1% 10.1% 15.6% 37.7% 13.2% 4.5% 4.8% 6.2% 2.1% 1.4% 1.3%

Общее
Уникальный идентификатор : 177529988408672788041504653015250808529 (0x858F0835C251DC10AE0BA9B6D05EAED1)
Полное имя : Очаровательная проказница 2 (La belle noiseuse) 1991 DVDRemux.mkv
Формат : Matroska
Версия формата : Version 2
Размер файла : 3,33 Гбайт
Продолжительность : 1 ч. 39 м.
Общий поток : 4770 Кбит/сек
Дата кодирования : UTC 2016-02-23 19:16:16
Программа кодирования : mkvmerge v4.0.0 ('The Stars were mine') сборка от Jun 6 2010 16:18:42
Библиотека кодирования : libebml v1.0.0 + libmatroska v1.0.0

Видео
Идентификатор : 1
Формат : AVC
Формат/Информация : Advanced Video Codec
Профиль формата : High@L4.1
Параметр CABAC формата : Да
Параметр ReFrames формата : 9 кадров
Идентификатор кодека : V_MPEG4/ISO/AVC
Продолжительность : 1 ч. 39 м.
Битрейт : 4000 Кбит/сек
Ширина : 748 пикселей
Высота : 576 пикселей
Соотношение сторон : 1,299
Режим частоты кадров : Постоянный
Частота кадров : 25,000 кадров/сек
Цветовое пространство : YUV
Субдискретизация насыщенности : 4:2:0
Битовая глубина : 8 бит
Тип развёртки : Прогрессивная
Бит/(Пиксели*Кадры) : 0.371
Размер потока : 2,73 Гбайт (82%)
Библиотека кодирования : x264 core 146 r2538 121396c
Настройки программы : cabac=1 / ref=9 / deblock=1:-3:-3 / analyse=0x3:0x133 / me=umh / subme=11 / psy=1 / psy_rd=1.00:0.00 / mixed_ref=1 / me_range=32 / chroma_me=1 / trellis=2 / 8x8dct=1 / cqm=0 / deadzone=21,11 / fast_pskip=0 / chroma_qp_offset=-2 / threads=12 / lookahead_threads=2 / sliced_threads=0 / nr=0 / decimate=0 / interlaced=0 / bluray_compat=0 / constrained_intra=0 / bframes=12 / b_pyramid=2 / b_adapt=2 / b_bias=0 / direct=3 / weightb=1 / open_gop=0 / weightp=2 / keyint=250 / keyint_min=25 / scenecut=40 / intra_refresh=0 / rc=2pass / mbtree=0 / bitrate=4000 / ratetol=1.0 / qcomp=0.60 / qpmin=0 / qpmax=69 / qpstep=4 / cplxblur=20.0 / qblur=0.5 / ip_ratio=1.40 / pb_ratio=1.30 / aq=1:0.80
Язык : French
Default : Нет
Forced : Нет

Аудио #1
Идентификатор : 2
Формат : AC-3
Формат/Информация : Audio Coding 3
Расширение режима : CM (complete main)
Параметр Endianness формата : Big
Идентификатор кодека : A_AC3
Продолжительность : 1 ч. 39 м.
Вид битрейта : Постоянный
Битрейт : 384 Кбит/сек
Каналы : 6 каналов
Расположение каналов : Front: L C R, Side: L R, LFE
Частота : 48,0 КГц
Метод сжатия : С потерями
Размер потока : 274 Мбайт (8%)
Заголовок : MVO
Язык : Russian
Default : Нет
Forced : Нет

Аудио #2
Идентификатор : 3
Формат : AC-3
Формат/Информация : Audio Coding 3
Расширение режима : CM (complete main)
Параметр Endianness формата : Big
Идентификатор кодека : A_AC3
Продолжительность : 1 ч. 39 м.
Вид битрейта : Постоянный
Битрейт : 384 Кбит/сек
Каналы : 6 каналов
Расположение каналов : Front: L C R, Side: L R, LFE
Частота : 48,0 КГц
Метод сжатия : С потерями
Размер потока : 274 Мбайт (8%)
Язык : French
Default : Нет
Forced : Нет

Текст #1
Идентификатор : 4
Формат : UTF-8
Идентификатор кодека : S_TEXT/UTF8
Идентификатор кодека/Информация : UTF-8 Plain Text
Язык : Russian
Default : Нет
Forced : Нет

Текст #2
Идентификатор : 5
Формат : UTF-8
Идентификатор кодека : S_TEXT/UTF8
Идентификатор кодека/Информация : UTF-8 Plain Text
Язык : English
Default : Нет
Forced : Нет



Скачать Очаровательная.проказница.La.belle.noiseuse.(Жак.Риветт).[1991.драма.DVDRip-AVC].[MVO]+[Sub]x2.torrent без регистрации
Золото ЗОЛОТАЯ РАЗДАЧА! СКАЧАННОЕ НЕ ЗАСЧИТЫВАЕТСЯ! Золото
Дата: Зарегистрирован   [ Тип: внутренний ] Как тут cкачать?
MAGNET ссылка
MAGNET ссылка


Скачать .torrent

39 KB

Статус: проверено DHT
Скачан: торрент - 37 раз, раздача полностью - 4 раз
Размер: 7,63 GB
Оценка:  - (Голосов: 0)
Поблагодарили: 1
Поделиться ссылкой на эту раздачу с друзьями:
В контактеFacebookОдноклассникиTwitterLivejournalМой МирLiveinternet
 

 
Показать сообщения:    


Вы не можете начинать темы
Вы не можете отвечать на сообщения
Вы не можете редактировать свои сообщения
Вы не можете удалять свои сообщения
Вы не можете голосовать в опросах
Вы не можете прикреплять файлы к сообщениям
Вы можете скачивать файлы