Loading...
Error

Скачать Улица потрошителя / Ripper Street (Сезон 04, серии 01-06 из 08) (Энди Уилсон, Том Шенклэнд, Колм МакКарти) [2016, детектив, драма, криминал, WEBRip] [DVO] (COLDFILM) торрент без регистрации

 
Статистика раздачи
Размер:  3,28 GB   |    Скачан:  91 раз

Полного источника не было: 22 минуты

 
Автор Сообщение

leon030982

[] 

Улица потрошителя / Ripper Street




Год выпуска: 2016
Страна: Великобритания | BBC One
Жанр: детектив, драма, криминал
Продолжительность: 1-я серия ~ 02:10:00 (остальные ~ 01:00:00)
Перевод: Любительский (двухголосый, закадровый) [COLDFILM]
Субтитры: нет
Примечание: Присутствует реклама

Режиссёры: Энди Уилсон, Том Шенклэнд, Колм МакКарти и др.

В ролях: Мэтью Макфейден, Джером Флинн, Адам Ротенберг, Дэвид Уилмот, МайАнна Бёринг, Шарлин МакКенна и др.
Описание: События данного сериала разворачиваются в Лондоне 1899 года, сразу после громких убийств, совершенных Джеком Потрошителем. Команда детективов расследует преступления, попутно стараясь успокоить панику среди жителей Ист-Энда.


Качество: WEBRip
Формат: AVI
Видео кодек: XviD
Аудио кодек: MP3
Видео: 720x306 (2.35:1), 25 fps, XviD MPEG-4 ~ 1032 kbps
Аудио: 48 kHz, MP3, 2 ch, 128 kbps - DVO
Релиз:


Добавлены 3-6 серии

Код:

General
Complete name                            : E:\INTERNET\Ripper Street (S02) ColdFilm\Ripper.Street.S04E01.ColdFilm.avi
Format                                   : AVI
Format/Info                              : Audio Video Interleave
File size                                : 963 MiB
Duration                                 : 2h 10mn
Overall bit rate                         : 1 129 Kbps
Writing application                      : VirtualDubMod 1.5.10.2 (build 2540/release)
Writing library                          : VirtualDubMod build 2540/release

Video
ID                                       : 0
Format                                   : MPEG-4 Visual
Format profile                           : Advanced Simple@L5
Format settings, BVOP                    : 2
Format settings, QPel                    : No
Format settings, GMC                     : No warppoints
Format settings, Matrix                  : Default (H.263)
Muxing mode                              : Packed bitstream
Codec ID                                 : XVID
Codec ID/Hint                            : XviD
Duration                                 : 2h 10mn
Bit rate                                 : 1032 Kbps
Width                                    : 720 pixels
Height                                   : 306 pixels
Display aspect ratio                     : 16:9
Original display aspect ratio            : 2.35:1
Frame rate                               : 25.000 fps
Color space                              : YUV
Chroma subsampling                       : 4:2:0
Bit depth                                : 8 bits
Scan type                                : Progressive
Compression mode                         : Lossy
Bits/(Pixel*Frame)                       : 0.155
Stream size                              : 797 MiB (83%)
Writing library                          : XviD 64

Audio
ID                                       : 1
Format                                   : MPEG Audio
Format version                           : Version 1
Format profile                           : Layer 3
Mode                                     : Joint stereo
Mode extension                           : MS Stereo
Codec ID                                 : 55
Codec ID/Hint                            : MP3
Duration                                 : 2h 10mn
Bit rate mode                            : Constant
Bit rate                                 : 128 Kbps
Channel(s)                               : 2 channels
Sampling rate                            : 48.0 KHz
Compression mode                         : Lossy
Delay relative to video                  : 16ms
Stream size                              : 120 MiB (12%)
Alignment                                : Split accross
Внимание! Раздача ведётся путём добавления новых серий; при каждом добавлении создаётся новый торрент. Чтобы начать докачку новой серии, пользователям необходимо сделать следующее:
(1) остановить скачивание,
(2) удалить старый торрент у себя из клиента (старые серии удалять не надо),
(3) скачать новый торрент и запустить его у себя в клиенте вместо старого, при этом указать клиенту путь в старую папку куда и должно происходить скачивание новых серий.
Ваш клиент при этом должен произвести хеширование (проверку) старой папки (если не производит сам - помогите ему сделать это), и будет докачивать только те серии которых у вас ещё нет. Старые серии при этом не удаляются, а продолжают раздаваться!
Eсли вы уже удалили старые серии, то предотвратить повторную закачку старых серий можно, отжав галочку в соответствующих местах при запуске нового торрента. По возможности, желательно не удалять старые серии как можно дольше чтобы релизёр не столько продолжал раздавать старые серии, а смог сконцентрироваться на новых.



Скачать Улица.потрошителя.Ripper.Street.(Сезон.04.серии.01-06.из.08).(Энди.Уилсон.Том.Шенклэнд.Колм.МакКарти).[2016.детектив.драма.криминал.WEBRip].[DVO].(COLDFILM).torrent без регистрации
Золото ЗОЛОТАЯ РАЗДАЧА! СКАЧАННОЕ НЕ ЗАСЧИТЫВАЕТСЯ! Золото
Дата: Зарегистрирован   [ Тип: внутренний ] Как тут cкачать?
MAGNET ссылка
MAGNET ссылка


Скачать .torrent

17 KB

Статус: проверено DHT
Скачан: торрент - 91 раз, раздача полностью - 87 раз
Размер: 3,28 GB
Оценка:  - (Голосов: 0)
Поблагодарили: 0
Поделиться ссылкой на эту раздачу с друзьями:
В контактеFacebookОдноклассникиTwitterLivejournalМой МирLiveinternet
 

 
Показать сообщения:    


Вы не можете начинать темы
Вы не можете отвечать на сообщения
Вы не можете редактировать свои сообщения
Вы не можете удалять свои сообщения
Вы не можете голосовать в опросах
Вы не можете прикреплять файлы к сообщениям
Вы можете скачивать файлы