Loading...
Error

Скачать Сотня / The 100 (сезон 03) (Дин Уайт и др.) [2016, фантастика, драма, детектив, боевик, BDRip] 4x[MVO (AlexFilm, LostFilm, NewStudio, Sony Sci-Fi| )]+[Eng]+[Sub Rus] торрент без регистрации

 
Статистика раздачи
Размер:  15,86 GB   |    Скачан:  110 раз
Сидов:  6  [  0 KB/s  ]   Личеров:  7  [  0 KB/s  ]  
 
Автор Сообщение

МихаНЕзатор

[] 

Информация о фильме
Название: Сотня
Оригинальное название: The 100
Год выхода: 2014-2015
Жанр: фантастика, драма, детектив, боевик
Режиссер: Дин Уайт, Мэтт Барбер, Джон Беринг, Милан Чейлов

В ролях: Элиза Тейлор-Коттер, Мари Авгеропулос, Сачин Сахель, Линдси Морган, Женевьев Бюкнер, Ричард Хэрмон, Джарод Джозеф, Челси Рейст, Крис Браунинг, Джош Ссеттуба

О фильме: События в сериале начинают разворачиваться по прошествии девяносто семи лет после того, как всю цивилизацию уничтожила страшная атомная война.
Высоко в космосе на орбите Земли летает большой космический корабль, где находятся те, кто выжил после страшной катастрофы. Именно с этого последнего пристанища людей на Землю отправляют космический челнок, на котором находятся сто малолетних преступников…

Релиз от:

Страна: США
Студия: The CW
Продолжительность: 00:42:30
Язык: Русский, Английский
Перевод: Профессиональный (многоголосый, закадровый)

Файл
Качество: BDRip
Формат: AVI
Видео кодек: XviD
Аудио кодек: AC3
Видео: 720x400 (1.80:1), 23.976 fps, XviD build 65 ~2000 kbps avg, 0.290 bit/pixel
Аудио Rus: 48 kHz, AC3, 3/2 (L,C,R,l,r) + LFE ch, ~384.00 kbps avg |Многоголосый закадровый, LostFlm|
Аудио Rus: 48 kHz, AC3, 3/2 (L,C,R,l,r) + LFE ch, ~384.00 kbps avg |Многоголосый закадровый, AlexFilm|
Аудио Rus: 48 kHz, AC3, 2/0 (L,R) ch, ~ 192.00 kbps avg |Многоголосый закадровый, Sony Sci-Fi|
Аудио Eng: 48 kHz, AC3, 3/2 (L,C,R,l,r) + LFE ch, ~ 384.00 kbps avg |Original|
Субтитры: Русские (внешние, str)

АНОНСЫ ПОПУЛЯРНЫХ РАЗДАЧ


Торрент обновлён, добавлен перевод от Sony Sci-Fi|!
* Запись звука Sony SCI-FI xironfs, miha2154
* Работа со всеми озвучками k-marat-s, Plazik
* Спасибо студии AlexFilm за сотрудничество и предоставленные голоса.
* Работа с субтитрами Messafan
01. Ван'эда. Часть 1 / Wanheda:Part 1
02. Ван'эда. Часть 2 / Wanheda:Part 2
03. Всяк сюда входящий / Ye Who Enter Here
04. Следи за престолом / Watch the Thrones
05. Акелдама / Hakeldama
06. Жестокая жатва / Bitter Harvest
07. Тринадцать / Thirteen
08. Условия и положения / Terms and Conditions
09. Украденное пламя / Stealing Fire
10. Падший / Fallen
11. Никогда / Nevermore
12. Демоны / Demons
13. Присоединись или умри / Join or Die
14. Багряный рассвет / Red Sky at Morning
15. Некорректная задача: Часть 1 / Perverse Instantiation: Part One
16. Некорректная задача: Часть 2 / Perverse Instantiation: Part Two
General
Format : AVI
Format/Info : Audio Video Interleave
File size : 1.00 GiB
Duration : 42 min
Overall bit rate : 3 368 kb/s
Writing application : VirtualDubMod 1.5.10.3 (build 2550/release)
Writing library : VirtualDubMod build 2550/release

Video
ID : 0
Format : MPEG-4 Visual
Format profile : Advanced Simple@L5
Format settings, BVOP : 1
Format settings, QPel : No
Format settings, GMC : No warppoints
Format settings, Matrix : Default (MPEG)
Codec ID : XVID
Codec ID/Hint : XviD
Duration : 42 min
Bit rate : 2 000 kb/s
Width : 720 pixels
Height : 400 pixels
Display aspect ratio : 16:9
Frame rate : 23.976 (23976/1000) FPS
Color space : YUV
Chroma subsampling : 4:2:0
Bit depth : 8 bits
Scan type : Progressive
Compression mode : Lossy
Bits/(Pixel*Frame) : 0.290
Stream size : 608 MiB (59%)
Writing library : XviD 65

Audio #1
ID : 1
Format : AC-3
Format/Info : Audio Coding 3
Mode extension : CM (complete main)
Format settings, Endianness : Big
Codec ID : 2000
Duration : 42 min
Bit rate mode : Constant
Bit rate : 384 kb/s
Channel(s) : 6 channels
Channel positions : Front: L C R, Side: L R, LFE
Sampling rate : 48.0 kHz
Frame rate : 31.250 FPS (1536 spf)
Compression mode : Lossy
Stream size : 117 MiB (11%)
Alignment : Split accross interleaves
Interleave, duration : 42 ms (1.00 video frame)
Interleave, preload duratio : 500 ms

Audio #2
ID : 2
Format : AC-3
Format/Info : Audio Coding 3
Mode extension : CM (complete main)
Format settings, Endianness : Big
Codec ID : 2000
Duration : 42 min
Bit rate mode : Constant
Bit rate : 384 kb/s
Channel(s) : 6 channels
Channel positions : Front: L C R, Side: L R, LFE
Sampling rate : 48.0 kHz
Frame rate : 31.250 FPS (1536 spf)
Compression mode : Lossy
Stream size : 117 MiB (11%)
Alignment : Split accross interleaves
Interleave, duration : 42 ms (1.00 video frame)
Interleave, preload duratio : 500 ms

Audio #3
ID : 3
Format : AC-3
Format/Info : Audio Coding 3
Mode extension : CM (complete main)
Format settings, Endianness : Big
Codec ID : 2000
Duration : 42 min
Bit rate mode : Constant
Bit rate : 192 kb/s
Channel(s) : 2 channels
Channel positions : Front: L R
Sampling rate : 48.0 kHz
Frame rate : 31.250 FPS (1536 spf)
Compression mode : Lossy
Stream size : 58.4 MiB (6%)
Alignment : Split accross interleaves
Interleave, duration : 42 ms (1.00 video frame)
Interleave, preload duratio : 500 ms

Audio #4
ID : 4
Format : AC-3
Format/Info : Audio Coding 3
Mode extension : CM (complete main)
Format settings, Endianness : Big
Codec ID : 2000
Duration : 42 min
Bit rate mode : Constant
Bit rate : 384 kb/s
Channel(s) : 6 channels
Channel positions : Front: L C R, Side: L R, LFE
Sampling rate : 48.0 kHz
Frame rate : 31.250 FPS (1536 spf)
Compression mode : Lossy
Stream size : 117 MiB (11%)
Alignment : Split accross interleaves
Interleave, duration : 42 ms (1.00 video frame)
Interleave, preload duratio : 500 ms



Скачать Сотня.The.100.(сезон.03).(Дин.Уайт.и.др.).[2016.фантастика.драма.детектив.боевик.BDRip].4x[MVO.(AlexFilm.LostFilm.NewStudio.Sony.Sci-Fi|.)]+[Eng]+[Sub.Rus].torrent без регистрации
Золото ЗОЛОТАЯ РАЗДАЧА! СКАЧАННОЕ НЕ ЗАСЧИТЫВАЕТСЯ! Золото
Дата: Зарегистрирован   [ Тип: внешний ] Как тут cкачать?
MAGNET ссылка
MAGNET ссылка


Скачать .torrent

43 KB

Статус: проверено DHT
Скачан: торрент - 110 раз, раздача полностью - 3 раз
Размер: 15,86 GB
Оценка:  - (Голосов: 0)
Поблагодарили: 1
Поделиться ссылкой на эту раздачу с друзьями:
В контактеFacebookОдноклассникиTwitterLivejournalМой МирLiveinternet
 

 
Показать сообщения:    


Вы не можете начинать темы
Вы не можете отвечать на сообщения
Вы не можете редактировать свои сообщения
Вы не можете удалять свои сообщения
Вы не можете голосовать в опросах
Вы не можете прикреплять файлы к сообщениям
Вы можете скачивать файлы