Loading...
Error

Скачать Сотня / The 100 (сезон 03) (Дин Уайт и др.) [2016, фантастика, драма, детектив, боевик, WEB-DL] [720p] 2x[MVO (AlexFilm, LostFilm)]+[Eng]+[Sub Eng] торрент без регистрации

 
Статистика раздачи
Размер:  24,23 GB   |    Скачан:  143 раза
Сидов:  15  [  0 KB/s  ]   Личеров:  2  [  0 KB/s  ]  
 
Автор Сообщение

МихаНЕзатор

[] 

Информация о фильме
Название: Сотня
Оригинальное название: The 100
Год выхода: 2016
Жанр: фантастика, драма, детектив, боевик
Режиссер: Дин Уайт, Мэтт Барбер, Джон Беринг, Милан Чейлов

В ролях: Элиза Тейлор-Коттер, Мари Авгеропулос, Сачин Сахель, Линдси Морган, Женевьев Бюкнер, Ричард Хэрмон, Джарод Джозеф, Челси Рейст, Крис Браунинг, Джош Ссеттуба

О фильме: События в сериале начинают разворачиваться по прошествии девяносто семи лет после того, как всю цивилизацию уничтожила страшная атомная война.
Высоко в космосе на орбите Земли летает большой космический корабль, где находятся те, кто выжил после страшной катастрофы. Именно с этого последнего пристанища людей на Землю отправляют космический челнок, на котором находятся сто малолетних преступников…

Релиз:

Страна: США
Студия: The CW
Продолжительность: 00:42:30
Язык: Русский, Английский
Перевод: Профессиональный (многоголосый, закадровый)

Файл
Формат: MKV
Кодек: MPEG-4 AVC
Качество: WEB-DL
Видео: 1280x718, 23.976 fps, 4100 kbps
Звук: Аудио кодек: AC3
Аудио Rus: 48 kHz, AC3, 6 ch, 384 kbps - Многоголосый закадровый, AlexFilm
Аудио Rus: 48 kHz, AC3, 6 ch, 384 kbps - Многоголосый закадровый, LostFilm
Аудио Eng: 48 kHz, AC3, 6 ch, 384 kbps - Original
Субтитры: Английские

АНОНСЫ ПОПУЛЯРНЫХ РАЗДАЧ


Торрент обновлён, добавлена 16-я серия!

01. Ван'эда. Часть 1 / Wanheda:Part 1
02. Ван'эда. Часть 2 / Wanheda:Part 2
03. Всяк сюда входящий / Ye Who Enter Here
04. Следи за престолом / Watch the Thrones
05. Акелдама / Hakeldama
06. Жестокая жатва / Bitter Harvest
07. Тринадцать / Thirteen
08. Условия и положения / Terms and Conditions
09. Украденное пламя / Stealing Fire
10. Падший / Fallen
11. Никогда / Nevermore
12. Демоны / Demons
13. Присоединись или умри / Join or Die
14. Багряный рассвет / Red Sky at Morning
15. Некорректная задача: Часть 1 / Perverse Instantiation: Part One
16. Некорректная задача: Часть 2 / Perverse Instantiation: Part Two
работа со звуком: k-marat-s. Отдельное спасибо Михаилу Шорыгину
General
Format : Matroska
Format version : Version 4 / Version 2
File size : 1.50 GiB
Duration : 42mn 28s
Overall bit rate : 5 067 Kbps
Movie name : The 100 3x01 (2016) - Release kmarats for HDCLUB
Encoded date : UTC 2016-01-30 09:59:36
Writing application : mkvmerge v7.9.0 ('Birds') 64bit
Writing library : libebml v1.3.1 + libmatroska v1.4.2

Video
ID : 1
Format : AVC
Format/Info : Advanced Video Codec
Format profile : High@L3.1
Format settings, CABAC : No
Format settings, ReFrames : 2 frames
Codec ID : V_MPEG4/ISO/AVC
Duration : 42mn 28s
Bit rate : 3 814 Kbps
Width : 1 280 pixels
Height : 718 pixels
Display aspect ratio : 16:9
Frame rate mode : Constant
Frame rate : 23.976 fps
Color space : YUV
Chroma subsampling : 4:2:0
Bit depth : 8 bits
Scan type : Progressive
Bits/(Pixel*Frame) : 0.173
Stream size : 1.13 GiB (75%)
Title : The 100 3x01 (2016) - Release kmarats for HDCLUB
Language : English
Default : Yes
Forced : No
Color primaries : BT.709
Transfer characteristics : BT.709
Matrix coefficients : BT.709

Audio #1
ID : 2
Format : AC-3
Format/Info : Audio Coding 3
Mode extension : CM (complete main)
Format settings, Endianness : Big
Codec ID : A_AC3
Duration : 42mn 28s
Bit rate mode : Constant
Bit rate : 384 Kbps
Channel(s) : 6 channels
Channel positions : Front: L C R, Side: L R, LFE
Sampling rate : 48.0 KHz
Bit depth : 16 bits
Compression mode : Lossy
Stream size : 117 MiB (8%)
Title : AlexFilm
Language : Russian
Default : Yes
Forced : No

Audio #2
ID : 3
Format : AC-3
Format/Info : Audio Coding 3
Mode extension : CM (complete main)
Format settings, Endianness : Big
Codec ID : A_AC3
Duration : 42mn 28s
Bit rate mode : Constant
Bit rate : 384 Kbps
Channel(s) : 6 channels
Channel positions : Front: L C R, Side: L R, LFE
Sampling rate : 48.0 KHz
Bit depth : 16 bits
Compression mode : Lossy
Stream size : 117 MiB (8%)
Title : LostFilm
Language : Russian
Default : No
Forced : No

Audio #3
ID : 4
Format : AC-3
Format/Info : Audio Coding 3
Mode extension : CM (complete main)
Format settings, Endianness : Big
Codec ID : A_AC3
Duration : 42mn 28s
Bit rate mode : Constant
Bit rate : 384 Kbps
Channel(s) : 6 channels
Channel positions : Front: L C R, Side: L R, LFE
Sampling rate : 48.0 KHz
Bit depth : 16 bits
Compression mode : Lossy
Stream size : 117 MiB (8%)
Title : English
Language : English
Default : No
Forced : No

Text
ID : 5
Format : UTF-8
Codec ID : S_TEXT/UTF8
Codec ID/Info : UTF-8 Plain Text
Title : eng-sub
Language : English
Default : No
Forced : No
Когда раздача ведётся путём добавления новых серий, при каждом добавлении создётся новый торрент. Чтобы начать докачку новой серии, пользователям необходимо сделать следующее:
(1) остановить скачивание,
(2) удалить старый торрент у себя из клиента (старые серии удалять не надо),
(3) скачать новый торрент и запустить его у себя в клиенте вместо старого, при этом указать клиенту путь в старую папку, куда и должно происходить скачивание новых серий.
Ваш клиент при этом должен произвести хеширование (проверку) старой папки (если не производит сам - помогите ему сделать это), и будет докачивать только те серии, которых у вас ещё нет. Старые серии при этом не удаляются, а продолжают раздаваться!
Eсли вы уже удалили старые серии, то предотвратить повторную закачку старых серий можно, отжав галочку в соответсвующих местах при запуске нового торрента. По возможности, желательно не удалять старые серии как можно дольше, чтобы релизёр не столько продолжал раздавать старые серии, а смог сконцентрироваться на новых.



Скачать Сотня.The.100.(сезон.03).(Дин.Уайт.и.др.).[2016.фантастика.драма.детектив.боевик.WEB-DL].[720p].2x[MVO.(AlexFilm.LostFilm)]+[Eng]+[Sub.Eng].torrent без регистрации
Золото ЗОЛОТАЯ РАЗДАЧА! СКАЧАННОЕ НЕ ЗАСЧИТЫВАЕТСЯ! Золото
Дата: Зарегистрирован   [ Тип: внешний ] Как тут cкачать?
MAGNET ссылка
MAGNET ссылка


Скачать .torrent

123 KB

Статус: проверено DHT
Скачан: торрент - 143 раз, раздача полностью - 29 раз
Размер: 24,23 GB
Оценка:  - (Голосов: 0)
Поблагодарили: 1
Поделиться ссылкой на эту раздачу с друзьями:
В контактеFacebookОдноклассникиTwitterLivejournalМой МирLiveinternet
 

 
Показать сообщения:    


Вы не можете начинать темы
Вы не можете отвечать на сообщения
Вы не можете редактировать свои сообщения
Вы не можете удалять свои сообщения
Вы не можете голосовать в опросах
Вы не можете прикреплять файлы к сообщениям
Вы можете скачивать файлы