Loading...
Error

Скачать Разрыв / Brecha (Иван Ноэль) [2009, драма, DVDRip-AVC] [VO]x2+[Sub]x4 торрент без регистрации

 
Статистика раздачи
Размер:  1,63 GB   |    Скачан:  62 раза
Сидов:  1  [  0 KB/s  ]  
 
Автор Сообщение

Marsianka

[] 

Информация о фильме
Название: Разрыв / Брешь
Оригинальное название: Brecha
Год выхода: 2009
Жанр: драма
Режиссер: Иван Ноэль
В ролях: Франсиско Альфонсин, Хосе Рамон Лафита, Лола Мендоза, Майса Санчес, Бенито Сорберо, Кармен Каро Куинонес, Мануэль Пазос, Виктория Ромеро де Торре, Асенсио Салас, Марибель Чика, Хосе Муньос

О фильме:
Чрезвычайно мощное и реалистичное изображение эмоционального разрыва между недавно вышедшим из тюрьмы человеком и его 12-летним сыном. Им обоим необходимо пережить страшную и темную семейную трагедию, но никто из них не в силах ей противостоять. Определенные усилия для нормализации жизни семьи прикладывает бабушка. Однако, учитывая неспособность отца забыть о прошлом, поведение его сына становится все более специфичным. Все три героя картины неловко пытаются преодолеть раскол и лишь только ухудшают ситуацию после каждой такой попытки, все ближе приближая ситуацию к катастрофе.



Производство: Испания / Iván Noel Productions
Продолжительность: 01:33:40
Перевод: любительский (одноголосый закадровый) [Вячеслав Прошин], любительский (одноголосый закадровый) [Василий Кошкин]

Файл
Качество: DVDRip-AVC
Формат: MKV
Видео: MPEG-4 AVC, 720x400 (16:9), 25.000 fps, 1920 kbps, 0.267 bit/pixel
Аудио #1: русский, AC3 2.0, 48 kHz, 192 kbps | Прошин
Аудио #2: русский, AC3 2.0, 48 kHz, 192 kbps | Кошкин
Аудио #2: испанский, AC3 2.0, 48 kHz, 192 kbps
Субтитры: русские [Алексей Крылов], английские, немецкие, польские вшитые отключаемые
Общее
Полное имя : Brecha.2009.DVDRip-AVC.mkv
Формат : Matroska
Версия формата : Version 4 / Version 2
Размер файла : 1,63 Гбайт
Продолжительность : 1 ч. 33 м.
Общий поток : 2499 Кбит/сек
Дата кодирования : UTC 2016-02-26 10:08:38
Программа кодирования : mkvmerge v7.9.0 ('Birds') 64bit
Библиотека кодирования : libebml v1.3.1 + libmatroska v1.4.2

Видео
Идентификатор : 1
Формат : AVC
Формат/Информация : Advanced Video Codec
Профиль формата : High@L4.1
Параметр CABAC формата : Да
Параметр ReFrames формата : 11 кадров
Идентификатор кодека : V_MPEG4/ISO/AVC
Продолжительность : 1 ч. 33 м.
Битрейт : 1920 Кбит/сек
Ширина : 720 пикселей
Высота : 400 пикселей
Соотношение сторон : 16:9
Режим частоты кадров : Постоянный
Частота кадров : 25,000 кадров/сек
Цветовое пространство : YUV
Субдискретизация насыщенности : 4:2:0
Битовая глубина : 8 бит
Тип развёртки : Прогрессивная
Бит/(Пиксели*Кадры) : 0.267
Размер потока : 1,23 Гбайт (75%)
Библиотека кодирования : x264 core 146 r2538 121396c
Настройки программы : cabac=1 / ref=11 / deblock=1:-3:-3 / analyse=0x3:0x113 / me=umh / subme=8 / psy=1 / psy_rd=1.00:0.15 / mixed_ref=1 / me_range=48 / chroma_me=1 / trellis=2 / 8x8dct=1 / cqm=0 / deadzone=21,11 / fast_pskip=1 / chroma_qp_offset=-3 / threads=6 / lookahead_threads=1 / sliced_threads=0 / nr=0 / decimate=1 / interlaced=0 / bluray_compat=0 / constrained_intra=0 / bframes=3 / b_pyramid=2 / b_adapt=2 / b_bias=0 / direct=3 / weightb=1 / open_gop=0 / weightp=2 / keyint=250 / keyint_min=25 / scenecut=40 / intra_refresh=0 / rc_lookahead=50 / rc=2pass / mbtree=1 / bitrate=1920 / ratetol=1.0 / qcomp=0.60 / qpmin=0 / qpmax=69 / qpstep=4 / cplxblur=20.0 / qblur=0.5 / ip_ratio=1.40 / aq=1:1.00
Язык : Spanish
Default : Да
Forced : Нет

Аудио #1
Идентификатор : 2
Формат : AC-3
Формат/Информация : Audio Coding 3
Расширение режима : CM (complete main)
Параметр Endianness формата : Big
Идентификатор кодека : A_AC3
Продолжительность : 1 ч. 33 м.
Вид битрейта : Постоянный
Битрейт : 192 Кбит/сек
Каналы : 2 канала
Расположение каналов : Front: L R
Частота : 48,0 КГц
Метод сжатия : С потерями
Размер потока : 129 Мбайт (8%)
Заголовок : Вячеслав Прошин
Язык : Russian
Default : Да
Forced : Нет

Аудио #2
Идентификатор : 3
Формат : AC-3
Формат/Информация : Audio Coding 3
Расширение режима : CM (complete main)
Параметр Endianness формата : Big
Идентификатор кодека : A_AC3
Продолжительность : 1 ч. 33 м.
Вид битрейта : Постоянный
Битрейт : 192 Кбит/сек
Каналы : 2 канала
Расположение каналов : Front: L R
Частота : 48,0 КГц
Метод сжатия : С потерями
Размер потока : 129 Мбайт (8%)
Заголовок : Василий Кошкин
Язык : Russian
Default : Нет
Forced : Нет

Аудио #3
Идентификатор : 4
Формат : AC-3
Формат/Информация : Audio Coding 3
Расширение режима : CM (complete main)
Параметр Endianness формата : Big
Идентификатор кодека : A_AC3
Продолжительность : 1 ч. 33 м.
Вид битрейта : Постоянный
Битрейт : 192 Кбит/сек
Каналы : 2 канала
Расположение каналов : Front: L R
Частота : 48,0 КГц
Метод сжатия : С потерями
Размер потока : 129 Мбайт (8%)
Заголовок : Español
Язык : Spanish
Default : Нет
Forced : Нет

Текст #1
Идентификатор : 5
Формат : UTF-8
Идентификатор кодека : S_TEXT/UTF8
Идентификатор кодека/Информация : UTF-8 Plain Text
Заголовок : Алексей Крылов
Язык : Russian
Default : Да
Forced : Нет

Текст #2
Идентификатор : 6
Формат : UTF-8
Идентификатор кодека : S_TEXT/UTF8
Идентификатор кодека/Информация : UTF-8 Plain Text
Язык : English
Default : Нет
Forced : Нет

Текст #3
Идентификатор : 7
Формат : UTF-8
Идентификатор кодека : S_TEXT/UTF8
Идентификатор кодека/Информация : UTF-8 Plain Text
Язык : German
Default : Нет
Forced : Нет

Текст #4
Идентификатор : 8
Формат : UTF-8
Идентификатор кодека : S_TEXT/UTF8
Идентификатор кодека/Информация : UTF-8 Plain Text
Язык : Polish
Default : Нет
Forced : Нет



Скачать Разрыв.Brecha.(Иван.Ноэль).[2009.драма.DVDRip-AVC].[VO]x2+[Sub]x4.torrent без регистрации
Золото ЗОЛОТАЯ РАЗДАЧА! СКАЧАННОЕ НЕ ЗАСЧИТЫВАЕТСЯ! Золото
Дата: Зарегистрирован   [ Тип: внутренний ] Как тут cкачать?
MAGNET ссылка
MAGNET ссылка


Скачать .torrent

17 KB

Статус: проверено DHT
Скачан: торрент - 62 раз, раздача полностью - 2 раз
Размер: 1,63 GB
Оценка:  - (Голосов: 0)
Поблагодарили: 1
Поделиться ссылкой на эту раздачу с друзьями:
В контактеFacebookОдноклассникиTwitterLivejournalМой МирLiveinternet
 

 
Показать сообщения:    


Вы не можете начинать темы
Вы не можете отвечать на сообщения
Вы не можете редактировать свои сообщения
Вы не можете удалять свои сообщения
Вы не можете голосовать в опросах
Вы не можете прикреплять файлы к сообщениям
Вы можете скачивать файлы