Loading...
Error

Скачать Двойной дракон / Double Dragon (Джеймс Юкич) [1994, фантастика, боевик, комедия, приключения, BDRip] [MVO]+[AVO]x2+[Sub]x2 торрент без регистрации

 
Статистика раздачи
Размер:  2,31 GB   |    Скачан:  48 раз
Сидов:  1  [  0,9 KB/s  ]  
 
Автор Сообщение

Marsianka

[] 

Информация о фильме
Название: Двойной дракон
Оригинальное название: Double Dragon
Год выхода: 1994
Жанр: фантастика, боевик, комедия, приключения
Режиссер: Джеймс Юкич / James Yukich
В ролях: Роберт Патрик, Марк Дакаскос, Скотт Вулф, Кристина Вагнер, Джулия Никсон-Соул, Алисса Милано, Нилс Аллен Стюарт, Генри Кинги, Джон Мэллори Ашер, Леон Рассом

О фильме:
«Двойной дракон» создан по мотивам популярнейшей игровой программы, распроданной в мире тиражом более 5,5 млн. экземпляров. Рукопашные схватки с экрана монитора переносятся в фантастическую реальность затопленного Лос-Анджелеса.
Братья Ли, виртуозно владеющие восточными единоборствами, вступают в битву за обладание второй половиной магического талисмана. Возглавляемые демоном Кога Шуко, силы тьмы вступают на пути Джимми и Билли. Через лабиринты руин, по водной глади рек и опустевшим улицам пройдут братья, чтобы завладеть древней силой и спасти родной город.



Страна: США
Продолжительность: 01:35:32
Профессиональный (многоголосый закадровый) R5
Перевод 2: Авторский (одноголосый закадровый) Андрей Гаврилов
Перевод 3: Авторский (одноголосый закадровый) Василий Горчаков
Cубтитры: русские, английские
Файл
Кодек: XviD
Качество: BDRip (Исходник: / BDRemux / 1080p)
Видео: 704x400 (1.76:1), 23.976 fps, XviD build 73 ~2100 kbps
Аудио: 48 kHz, AC3 Dolby Digital, 3/2 (L,C,R,l,r) + LFE ch, ~384.00 kbps avg (R5)
Аудио 2: 48 kHz, AC3 Dolby Digital, 3/2 (L,C,R,l,r) + LFE ch, ~384.00 kbps avg (Андрей Гаврилов)
Аудио 3: 48 kHz, AC3 Dolby Digital, 3/2 (L,C,R,l,r) + LFE ch, ~384.00 kbps avg (Eng)
Аудио 4: 48 kHz, AC3 Dolby Digital, 2/0 (L,R) ch, ~192.00 kbps avg (Василий Горчаков) отдельно

General
Format : AVI
Format/Info : Audio Video Interleave
Format profile : OpenDML
File size : 2.19 GiB
Duration : 1h 35mn
Overall bit rate : 3 276 Kbps
Writing application : VirtualDubMod 1.5.10.3 | www.virtualdub-fr.org || (build 2550/release)
Writing library : VirtualDubMod build 2550/release

Video
ID : 0
Format : MPEG-4 Visual
Format profile : Advanced Simple@L5
Format settings, BVOP : 1
Format settings, QPel : No
Format settings, GMC : No warppoints
Format settings, Matrix : Custom
Codec ID : XVID
Codec ID/Hint : XviD
Duration : 1h 35mn
Bit rate : 2 100 Kbps
Width : 704 pixels
Height : 400 pixels
Display aspect ratio : 16:9
Frame rate : 23.976 fps
Color space : YUV
Chroma subsampling : 4:2:0
Bit depth : 8 bits
Scan type : Progressive
Compression mode : Lossy
Bits/(Pixel*Frame) : 0.311
Stream size : 1.40 GiB (64%)
Writing library : XviD 73

Audio #1
ID : 1
Format : AC-3
Format/Info : Audio Coding 3
Mode extension : CM (complete main)
Format settings, Endianness : Big
Codec ID : 2000
Duration : 1h 35mn
Bit rate mode : Constant
Bit rate : 384 Kbps
Channel(s) : 6 channels
Channel positions : Front: L C R, Side: L R, LFE
Sampling rate : 48.0 KHz
Bit depth : 16 bits
Compression mode : Lossy
Stream size : 262 MiB (12%)
Alignment : Split accross interleaves
Interleave, duration : 42 ms (1.00 video frame)
Interleave, preload duration : 500 ms

Audio #2
ID : 2
Format : AC-3
Format/Info : Audio Coding 3
Mode extension : CM (complete main)
Format settings, Endianness : Big
Codec ID : 2000
Duration : 1h 35mn
Bit rate mode : Constant
Bit rate : 384 Kbps
Channel(s) : 6 channels
Channel positions : Front: L C R, Side: L R, LFE
Sampling rate : 48.0 KHz
Bit depth : 16 bits
Compression mode : Lossy
Stream size : 262 MiB (12%)
Alignment : Split accross interleaves
Interleave, duration : 42 ms (1.00 video frame)
Interleave, preload duration : 500 ms

Audio #3
ID : 3
Format : AC-3
Format/Info : Audio Coding 3
Mode extension : CM (complete main)
Format settings, Endianness : Big
Codec ID : 2000
Duration : 1h 35mn
Bit rate mode : Constant
Bit rate : 384 Kbps
Channel(s) : 6 channels
Channel positions : Front: L C R, Side: L R, LFE
Sampling rate : 48.0 KHz
Bit depth : 16 bits
Compression mode : Lossy
Stream size : 262 MiB (12%)
Alignment : Split accross interleaves
Interleave, duration : 42 ms (1.00 video frame)
Interleave, preload duration : 500 ms
Релиз от:

Автор рипа: Sem-te



Скачать Двойной.дракон.Double.Dragon.(Джеймс.Юкич).[1994.фантастика.боевик.комедия.приключения.BDRip].[MVO]+[AVO]x2+[Sub]x2.torrent без регистрации
Золото ЗОЛОТАЯ РАЗДАЧА! СКАЧАННОЕ НЕ ЗАСЧИТЫВАЕТСЯ! Золото
Дата: Зарегистрирован   [ Тип: внутренний ] Как тут cкачать?
MAGNET ссылка
MAGNET ссылка


Скачать .torrent

13 KB

Статус: проверено DHT
Скачан: торрент - 48 раз, раздача полностью - 16 раз
Размер: 2,31 GB
Оценка:  - (Голосов: 0)
Поблагодарили: 0
Поделиться ссылкой на эту раздачу с друзьями:
В контактеFacebookОдноклассникиTwitterLivejournalМой МирLiveinternet
 

 
Показать сообщения:    


Вы не можете начинать темы
Вы не можете отвечать на сообщения
Вы не можете редактировать свои сообщения
Вы не можете удалять свои сообщения
Вы не можете голосовать в опросах
Вы не можете прикреплять файлы к сообщениям
Вы можете скачивать файлы