Loading...
Error

Скачать Смерть в раю / Death in Paradise (сезон 05) (Олрик Райли и др.) [2016, триллер, драма, криминал, детектив, HDTVRip] [DVO (Sunshine Studio)] торрент без регистрации

 
Статистика раздачи
Размер:  5,42 GB   |    Скачан:  44 раза
Сидов:  1  [  0 KB/s  ]  
 
Автор Сообщение

МихаНЕзатор

[] 

Информация о фильме
Название: Смерть в раю
Оригинальное название: Death in Paradise
Год выхода: 2016
Жанр: триллер, драма, криминал, детектив
Режиссер: Олрик Райли, Роджер Голдби, Пол Харрисон

В ролях: Сара Мартинс, Дэнни Джон-Джулс, Гари Карр, Элизабет Буржин, Бен Миллер, Дон Уоррингтон, Крис Маршалл, Эдриан Данбар, Морвен Кристи, Мона Хэммонд

О фильме: Детективный сериал о инспекторе Лондонского управления полиции, Ричарде Пуле, которого отправили вести расследования в одно из самых (по его мнению) ужасных мест на земле — карибский остров Сент-Мари.



Страна: Великобритания, Франция
Студия: Red Planet Pictures and Atlantique Production, in association with Kudos for the BBC and France Télévisions
Продолжительность: ~00:59:00 серия
Перевод: Любительский (двухголосый закадровый) [Sunshine Studio]

Файл
Кодек: XviD / MP3
Качество: HDTVRip
Видео: MPEG4, XviD, 720x400 (16:9), 25.000 fps, 1500 Kbps (0.208 bit/pixel)
Звук: AC3, 48.0 KHz, 2 ch, 192 Kbps

АНОНСЫ ПОПУЛЯРНЫХ РАЗДАЧ
General
Complete name : death.in.paradise.s05e01.Sunshine Studio.avi
Format : AVI
Format/Info : Audio Video Interleave
File size : 715 MiB
Duration : 58mn 45s
Overall bit rate : 1 702 Kbps
Writing application : VirtualDubMod 1.5.10.3 | www.virtualdub-fr.org || (build 2550/release)
Writing library : VirtualDubMod build 2550/release

Video
ID : 0
Format : MPEG-4 Visual
Format profile : Advanced Simple@L5
Format settings, BVOP : 2
Format settings, QPel : No
Format settings, GMC : No warppoints
Format settings, Matrix : Default (MPEG)
Codec ID : XVID
Codec ID/Hint : XviD
Duration : 58mn 45s
Bit rate : 1 500 Kbps
Width : 720 pixels
Height : 400 pixels
Display aspect ratio : 16:9
Frame rate : 25.000 fps
Color space : YUV
Chroma subsampling : 4:2:0
Bit depth : 8 bits
Scan type : Progressive
Compression mode : Lossy
Bits/(Pixel*Frame) : 0.208
Stream size : 630 MiB (88%)
Writing library : XviD 1.2.1 (UTC 2008-12-04)

Audio
ID : 1
Format : AC-3
Format/Info : Audio Coding 3
Mode extension : CM (complete main)
Format settings, Endianness : Big
Codec ID : 2000
Duration : 58mn 44s
Bit rate mode : Constant
Bit rate : 192 Kbps
Channel(s) : 2 channels
Channel positions : Front: L R
Sampling rate : 48.0 KHz
Bit depth : 16 bits
Compression mode : Lossy
Stream size : 80.7 MiB (11%)
Alignment : Split accross interleaves
Interleave, duration : 40 ms (1.00 video frame)
Interleave, preload duration : 500 ms



Скачать Смерть.в.раю.Death.in.Paradise.(сезон.05).(Олрик.Райли.и.др.).[2016.триллер.драма.криминал.детектив.HDTVRip].[DVO.(Sunshine.Studio)].torrent без регистрации
Золото ЗОЛОТАЯ РАЗДАЧА! СКАЧАННОЕ НЕ ЗАСЧИТЫВАЕТСЯ! Золото
Дата: Зарегистрирован   [ Тип: внутренний ] Как тут cкачать?
MAGNET ссылка
MAGNET ссылка


Скачать .torrent

28 KB

Статус: проверено DHT
Скачан: торрент - 44 раз, раздача полностью - 363 раз
Размер: 5,42 GB
Оценка:  - (Голосов: 0)
Поблагодарили: 0
Поделиться ссылкой на эту раздачу с друзьями:
В контактеFacebookОдноклассникиTwitterLivejournalМой МирLiveinternet
 

 
Показать сообщения:    


Вы не можете начинать темы
Вы не можете отвечать на сообщения
Вы не можете редактировать свои сообщения
Вы не можете удалять свои сообщения
Вы не можете голосовать в опросах
Вы не можете прикреплять файлы к сообщениям
Вы можете скачивать файлы