Loading...
Error

Скачать Чикаго блюз / The Big Town (Бен Болт, Харольд Беккер) [1987, триллер, драма, мелодрама, ..., DVDRip-AVC] [MVO]+[AVO]+[Sub] торрент без регистрации

 
Статистика раздачи
Размер:  3,38 GB   |    Скачан:  38 раз
Сидов:  1  [  0 KB/s  ]  
 
Автор Сообщение

Marsianka

[] 

Название: Чикаго блюз
Оригинальное название: The Big Town
Год выхода: 1987
Страна: США
Студия: Albacore Productions Inc., Columbia Pictures Corporation
Продолжительность: 01:45:43
Жанр: триллер, драма, мелодрама, ...

Режиссер: Бен Болт, Харольд Беккер
В ролях: Мэтт Диллон, Дайан Лэйн, Томми Ли Джонс, Брюс Дерн, Ли Грант, Том Скеррит, Сьюзи Эмис, Дэвид Маршалл Грант, Дон Фрэнкс, Дел Клоуз, ...

Перевод:
Профессиональный (многоголосый, закадровый)
Авторский (одноголосый, закадровый) Живов Юрий Викторович

О фильме: В маленьком городишке на Среднем Западе живет парень по имени Калли. Ему очень везет в игре в кости, и он мечтает попытать счастья в Чикаго, столице рок-н-ролла и блюза, где играют лучшие из лучших. Мечта Калли сбывается.
За короткое время он обретает славу самого удачливого игрока большого города и знакомится с супружеской четой, владеющей стрип-клубом. Коул ведет все дела, включая не совсем законные, а его жена Лорри — главная «звезда» клуба. Опасная любовная связь с ней вовлекает Калли в паутину зависти, ревности и интриг. Ему придется постараться изо всех сил, чтобы Чикаго, город его мечты, не стал местом его смерти…



Кодек: x264
Качество: DVDRip-AVC
Видео: 748x568 , 4000 kbps, 25 fps
Аудио #1: AC-3, 2 ch, 192 kbps (Rus) - MVO
Аудио #2: AC-3, 2 ch, 192 kbps (Rus) - AVO Живов Юрий Викторович
Аудио #3: AC-3, 2 ch, 192 kbps (Eng)
Субтитры: Английские
За исходник спасибо - Menen

x264 [info]: frame I:997 Avg QP:17.93 size: 57721
x264 [info]: frame P:28681 Avg QP:20.46 size: 33816
x264 [info]: frame B:128908 Avg QP:22.49 size: 16635
x264 [info]: consecutive B-frames: 0.9% 0.9% 3.3% 5.8% 4.2% 82.4% 1.1% 0.2% 0.3% 0.1% 0.1% 0.9% 0.0%

Общее
Уникальный идентификатор : 181824243429801571821485697955173168213 (0x88CA135435E614F0A7867FA731CEF455)
Полное имя : Чикаго Блюз (The Big Town) 1987 DVDRip.mkv
Формат : Matroska
Версия формата : Version 2
Размер файла : 3,38 Гбайт
Продолжительность : 1 ч. 45 м.
Общий поток : 4579 Кбит/сек
Дата кодирования : UTC 2016-03-04 01:30:54
Программа кодирования : mkvmerge v4.0.0 ('The Stars were mine') сборка от Jun 6 2010 16:18:42
Библиотека кодирования : libebml v1.0.0 + libmatroska v1.0.0

Видео
Идентификатор : 1
Формат : AVC
Формат/Информация : Advanced Video Codec
Профиль формата : High@L4.1
Параметр CABAC формата : Да
Параметр ReFrames формата : 9 кадров
Идентификатор кодека : V_MPEG4/ISO/AVC
Продолжительность : 1 ч. 45 м.
Битрейт : 4000 Кбит/сек
Ширина : 748 пикселей
Высота : 568 пикселей
Соотношение сторон : 4:3
Режим частоты кадров : Постоянный
Частота кадров : 25,000 кадров/сек
Цветовое пространство : YUV
Субдискретизация насыщенности : 4:2:0
Битовая глубина : 8 бит
Тип развёртки : Прогрессивная
Бит/(Пиксели*Кадры) : 0.377
Размер потока : 2,89 Гбайт (85%)
Библиотека кодирования : x264 core 146 r2538 121396c
Настройки программы : cabac=1 / ref=9 / deblock=1:-3:-3 / analyse=0x3:0x133 / me=umh / subme=11 / psy=1 / psy_rd=1.00:0.00 / mixed_ref=1 / me_range=32 / chroma_me=1 / trellis=2 / 8x8dct=1 / cqm=0 / deadzone=21,11 / fast_pskip=0 / chroma_qp_offset=-2 / threads=12 / lookahead_threads=2 / sliced_threads=0 / nr=0 / decimate=0 / interlaced=0 / bluray_compat=0 / constrained_intra=0 / bframes=12 / b_pyramid=2 / b_adapt=2 / b_bias=0 / direct=3 / weightb=1 / open_gop=0 / weightp=2 / keyint=250 / keyint_min=25 / scenecut=40 / intra_refresh=0 / rc=2pass / mbtree=0 / bitrate=4000 / ratetol=1.0 / qcomp=0.60 / qpmin=0 / qpmax=69 / qpstep=4 / cplxblur=20.0 / qblur=0.5 / ip_ratio=1.40 / pb_ratio=1.30 / aq=1:0.80
Язык : English
Default : Нет
Forced : Нет

Аудио #1
Идентификатор : 2
Формат : AC-3
Формат/Информация : Audio Coding 3
Расширение режима : CM (complete main)
Параметр Endianness формата : Big
Идентификатор кодека : A_AC3
Продолжительность : 1 ч. 45 м.
Вид битрейта : Постоянный
Битрейт : 192 Кбит/сек
Каналы : 2 канала
Расположение каналов : Front: L R
Частота : 48,0 КГц
Метод сжатия : С потерями
Размер потока : 145 Мбайт (4%)
Заголовок : MVO
Язык : Russian
Default : Нет
Forced : Нет

Аудио #2
Идентификатор : 3
Формат : AC-3
Формат/Информация : Audio Coding 3
Расширение режима : CM (complete main)
Параметр Endianness формата : Big
Идентификатор кодека : A_AC3
Продолжительность : 1 ч. 45 м.
Вид битрейта : Постоянный
Битрейт : 192 Кбит/сек
Каналы : 2 канала
Расположение каналов : Front: L R
Частота : 48,0 КГц
Метод сжатия : С потерями
Размер потока : 145 Мбайт (4%)
Заголовок : AVO Живов Юрий Викторович
Язык : Russian
Default : Нет
Forced : Нет

Аудио #3
Идентификатор : 4
Формат : AC-3
Формат/Информация : Audio Coding 3
Расширение режима : CM (complete main)
Параметр Endianness формата : Big
Идентификатор кодека : A_AC3
Продолжительность : 1 ч. 45 м.
Вид битрейта : Постоянный
Битрейт : 192 Кбит/сек
Каналы : 2 канала
Расположение каналов : Front: L R
Частота : 48,0 КГц
Метод сжатия : С потерями
Размер потока : 145 Мбайт (4%)
Язык : English
Default : Нет
Forced : Нет

Текст
Идентификатор : 5
Формат : UTF-8
Идентификатор кодека : S_TEXT/UTF8
Идентификатор кодека/Информация : UTF-8 Plain Text
Язык : English
Default : Нет
Forced : Нет



Скачать Чикаго.блюз.The.Big.Town.(Бен.Болт.Харольд.Беккер).[1987.триллер.драма.мелодрама.DVDRip-AVC].[MVO]+[AVO]+[Sub].torrent без регистрации
Золото ЗОЛОТАЯ РАЗДАЧА! СКАЧАННОЕ НЕ ЗАСЧИТЫВАЕТСЯ! Золото
Дата: Зарегистрирован   [ Тип: внутренний ] Как тут cкачать?
MAGNET ссылка
MAGNET ссылка


Скачать .torrent

18 KB

Статус: проверено DHT
Скачан: торрент - 38 раз, раздача полностью - 0 раз
Размер: 3,38 GB
Оценка:  - (Голосов: 0)
Поблагодарили: 0
Поделиться ссылкой на эту раздачу с друзьями:
В контактеFacebookОдноклассникиTwitterLivejournalМой МирLiveinternet
 

 
Показать сообщения:    


Вы не можете начинать темы
Вы не можете отвечать на сообщения
Вы не можете редактировать свои сообщения
Вы не можете удалять свои сообщения
Вы не можете голосовать в опросах
Вы не можете прикреплять файлы к сообщениям
Вы можете скачивать файлы